  0
SECTION
  2
HEADER
  9
$ACADVER
  1
AC1018
  9
$ACADMAINTVER
 70
     0
  9
$DWGCODEPAGE
  3
ANSI_1252
  9
$INSBASE
 10
0.0
 20
0.0
 30
0.0
  9
$EXTMIN
 10
-244.9316557706154
 20
0.15039843919885
 30
0.0
  9
$EXTMAX
 10
52.06834422938272
 20
210.150398439199
 30
0.0
  9
$LIMMIN
 10
0.0
 20
0.0
  9
$LIMMAX
 10
12.0
 20
9.0
  9
$ORTHOMODE
 70
     0
  9
$REGENMODE
 70
     1
  9
$FILLMODE
 70
     1
  9
$QTEXTMODE
 70
     0
  9
$MIRRTEXT
 70
     1
  9
$LTSCALE
 40
1.0
  9
$ATTMODE
 70
     1
  9
$TEXTSIZE
 40
0.2
  9
$TRACEWID
 40
0.05
  9
$TEXTSTYLE
  7
Standard
  9
$CLAYER
  8
0
  9
$CELTYPE
  6
ByLayer
  9
$CECOLOR
 62
   256
  9
$CELTSCALE
 40
1.0
  9
$DISPSILH
 70
     0
  9
$DIMSCALE
 40
1.0
  9
$DIMASZ
 40
0.18
  9
$DIMEXO
 40
0.0625
  9
$DIMDLI
 40
0.38
  9
$DIMRND
 40
0.0
  9
$DIMDLE
 40
0.0
  9
$DIMEXE
 40
0.18
  9
$DIMTP
 40
0.0
  9
$DIMTM
 40
0.0
  9
$DIMTXT
 40
0.18
  9
$DIMCEN
 40
0.09
  9
$DIMTSZ
 40
0.0
  9
$DIMTOL
 70
     0
  9
$DIMLIM
 70
     0
  9
$DIMTIH
 70
     1
  9
$DIMTOH
 70
     1
  9
$DIMSE1
 70
     0
  9
$DIMSE2
 70
     0
  9
$DIMTAD
 70
     0
  9
$DIMZIN
 70
     0
  9
$DIMBLK
  1

  9
$DIMASO
 70
     1
  9
$DIMSHO
 70
     1
  9
$DIMPOST
  1

  9
$DIMAPOST
  1

  9
$DIMALT
 70
     0
  9
$DIMALTD
 70
     2
  9
$DIMALTF
 40
25.4
  9
$DIMLFAC
 40
1.0
  9
$DIMTOFL
 70
     0
  9
$DIMTVP
 40
0.0
  9
$DIMTIX
 70
     0
  9
$DIMSOXD
 70
     0
  9
$DIMSAH
 70
     0
  9
$DIMBLK1
  1

  9
$DIMBLK2
  1

  9
$DIMSTYLE
  2
Standard
  9
$DIMCLRD
 70
     0
  9
$DIMCLRE
 70
     0
  9
$DIMCLRT
 70
     0
  9
$DIMTFAC
 40
1.0
  9
$DIMGAP
 40
0.09
  9
$DIMJUST
 70
     0
  9
$DIMSD1
 70
     0
  9
$DIMSD2
 70
     0
  9
$DIMTOLJ
 70
     1
  9
$DIMTZIN
 70
     0
  9
$DIMALTZ
 70
     0
  9
$DIMALTTZ
 70
     0
  9
$DIMUPT
 70
     0
  9
$DIMDEC
 70
     4
  9
$DIMTDEC
 70
     4
  9
$DIMALTU
 70
     2
  9
$DIMALTTD
 70
     2
  9
$DIMTXSTY
  7
Standard
  9
$DIMAUNIT
 70
     0
  9
$DIMADEC
 70
     0
  9
$DIMALTRND
 40
0.0
  9
$DIMAZIN
 70
     0
  9
$DIMDSEP
 70
    46
  9
$DIMATFIT
 70
     3
  9
$DIMFRAC
 70
     0
  9
$DIMLDRBLK
  1

  9
$DIMLUNIT
 70
     2
  9
$DIMLWD
 70
    -2
  9
$DIMLWE
 70
    -2
  9
$DIMTMOVE
 70
     0
  9
$LUNITS
 70
     2
  9
$LUPREC
 70
     4
  9
$SKETCHINC
 40
0.1
  9
$FILLETRAD
 40
0.5
  9
$AUNITS
 70
     0
  9
$AUPREC
 70
     0
  9
$MENU
  1
.
  9
$ELEVATION
 40
0.0
  9
$PELEVATION
 40
0.0
  9
$THICKNESS
 40
0.0
  9
$LIMCHECK
 70
     0
  9
$CHAMFERA
 40
0.5
  9
$CHAMFERB
 40
0.5
  9
$CHAMFERC
 40
1.0
  9
$CHAMFERD
 40
0.0
  9
$SKPOLY
 70
     0
  9
$TDCREATE
 40
2458137.79905434
  9
$TDUCREATE
 40
2458137.757387673
  9
$TDUPDATE
 40
2458137.799054884
  9
$TDUUPDATE
 40
2458137.757388217
  9
$TDINDWG
 40
0.0000000116
  9
$TDUSRTIMER
 40
0.0000000116
  9
$USRTIMER
 70
     1
  9
$ANGBASE
 50
0.0
  9
$ANGDIR
 70
     0
  9
$PDMODE
 70
     0
  9
$PDSIZE
 40
0.0
  9
$PLINEWID
 40
0.0
  9
$SPLFRAME
 70
     0
  9
$SPLINETYPE
 70
     6
  9
$SPLINESEGS
 70
     8
  9
$HANDSEED
  5
2DB
  9
$SURFTAB1
 70
     6
  9
$SURFTAB2
 70
     6
  9
$SURFTYPE
 70
     6
  9
$SURFU
 70
     6
  9
$SURFV
 70
     6
  9
$UCSBASE
  2

  9
$UCSNAME
  2

  9
$UCSORG
 10
0.0
 20
0.0
 30
0.0
  9
$UCSXDIR
 10
1.0
 20
0.0
 30
0.0
  9
$UCSYDIR
 10
0.0
 20
1.0
 30
0.0
  9
$UCSORTHOREF
  2

  9
$UCSORTHOVIEW
 70
     0
  9
$UCSORGTOP
 10
0.0
 20
0.0
 30
0.0
  9
$UCSORGBOTTOM
 10
0.0
 20
0.0
 30
0.0
  9
$UCSORGLEFT
 10
0.0
 20
0.0
 30
0.0
  9
$UCSORGRIGHT
 10
0.0
 20
0.0
 30
0.0
  9
$UCSORGFRONT
 10
0.0
 20
0.0
 30
0.0
  9
$UCSORGBACK
 10
0.0
 20
0.0
 30
0.0
  9
$PUCSBASE
  2

  9
$PUCSNAME
  2

  9
$PUCSORG
 10
0.0
 20
0.0
 30
0.0
  9
$PUCSXDIR
 10
1.0
 20
0.0
 30
0.0
  9
$PUCSYDIR
 10
0.0
 20
1.0
 30
0.0
  9
$PUCSORTHOREF
  2

  9
$PUCSORTHOVIEW
 70
     0
  9
$PUCSORGTOP
 10
0.0
 20
0.0
 30
0.0
  9
$PUCSORGBOTTOM
 10
0.0
 20
0.0
 30
0.0
  9
$PUCSORGLEFT
 10
0.0
 20
0.0
 30
0.0
  9
$PUCSORGRIGHT
 10
0.0
 20
0.0
 30
0.0
  9
$PUCSORGFRONT
 10
0.0
 20
0.0
 30
0.0
  9
$PUCSORGBACK
 10
0.0
 20
0.0
 30
0.0
  9
$USERI1
 70
     0
  9
$USERI2
 70
     0
  9
$USERI3
 70
     0
  9
$USERI4
 70
     0
  9
$USERI5
 70
     0
  9
$USERR1
 40
18.1
  9
$USERR2
 40
0.0
  9
$USERR3
 40
0.0
  9
$USERR4
 40
0.0
  9
$USERR5
 40
0.0
  9
$WORLDVIEW
 70
     1
  9
$SHADEDGE
 70
     3
  9
$SHADEDIF
 70
    70
  9
$TILEMODE
 70
     1
  9
$MAXACTVP
 70
    64
  9
$PINSBASE
 10
0.0
 20
0.0
 30
0.0
  9
$PLIMCHECK
 70
     0
  9
$PEXTMIN
 10
1.00000000000000E+20
 20
1.00000000000000E+20
 30
1.00000000000000E+20
  9
$PEXTMAX
 10
-1.00000000000000E+20
 20
-1.00000000000000E+20
 30
-1.00000000000000E+20
  9
$PLIMMIN
 10
0.0
 20
0.0
  9
$PLIMMAX
 10
12.0
 20
9.0
  9
$UNITMODE
 70
     0
  9
$VISRETAIN
 70
     1
  9
$PLINEGEN
 70
     0
  9
$PSLTSCALE
 70
     1
  9
$TREEDEPTH
 70
  3020
  9
$CMLSTYLE
  2
Standard
  9
$CMLJUST
 70
     0
  9
$CMLSCALE
 40
1.0
  9
$PROXYGRAPHICS
 70
     1
  9
$MEASUREMENT
 70
     1
  9
$CELWEIGHT
370
    -1
  9
$ENDCAPS
280
     0
  9
$JOINSTYLE
280
     0
  9
$LWDISPLAY
290
     0
  9
$INSUNITS
 70
     4
  9
$HYPERLINKBASE
  1

  9
$STYLESHEET
  1

  9
$XEDIT
290
     1
  9
$CEPSNTYPE
380
     0
  9
$PSTYLEMODE
290
     1
  9
$FINGERPRINTGUID
  2
{A4DF32C1-B43F-453F-9125-DB8C2FC65DC1}
  9
$VERSIONGUID
  2
{FAEB1C32-E019-11D5-929B-00C0DF256EC4}
  9
$EXTNAMES
290
     1
  9
$PSVPSCALE
 40
0.0
  9
$OLESTARTUP
290
     0
  9
$SORTENTS
280
   127
  9
$INDEXCTL
280
     0
  9
$HIDETEXT
280
     1
  9
$XCLIPFRAME
290
     0
  9
$HALOGAP
280
     0
  9
$OBSCOLOR
 70
   257
  9
$OBSLTYPE
280
     0
  9
$INTERSECTIONDISPLAY
280
     0
  9
$INTERSECTIONCOLOR
 70
   257
  9
$DIMASSOC
280
     2
  9
$PROJECTNAME
  1

  0
ENDSEC
  0
SECTION
  2
CLASSES
  0
CLASS
  1
ACDBDICTIONARYWDFLT
  2
AcDbDictionaryWithDefault
  3
ObjectDBX Classes
 90
        0
 91
        4
280
     0
281
     0
  0
CLASS
  1
VISUALSTYLE
  2
AcDbVisualStyle
  3
ObjectDBX Classes
 90
     4095
 91
        4
280
     0
281
     0
  0
CLASS
  1
MATERIAL
  2
AcDbMaterial
  3
ObjectDBX Classes
 90
     1153
 91
        4
280
     0
281
     0
  0
ENDSEC
  0
SECTION
  2
TABLES
  0
TABLE
  2
VPORT
  5
8
330
0
100
AcDbSymbolTable
 70
     1
  0
VPORT
  5
29
330
8
100
AcDbSymbolTableRecord
100
AcDbViewportTableRecord
  2
*Active
 70
     0
 10
0.0
 20
0.0
 11
1.0
 21
1.0
 12
-96.43165577061635
 22
105.1503984391989
 13
0.0
 23
0.0
 14
0.5
 24
0.5
 15
0.5
 25
0.5
 16
0.0
 26
0.0
 36
1.0
 17
0.0
 27
0.0
 37
0.0
 40
231.0000000000002
 41
1.60267857142857
 42
50.0
 43
0.0
 44
0.0
 50
0.0
 51
0.0
 71
     0
 72
   100
 73
     1
 74
     3
 75
     0
 76
     0
 77
     0
 78
     0
281
     0
 65
     1
110
0.0
120
0.0
130
0.0
111
1.0
121
0.0
131
0.0
112
0.0
122
1.0
132
0.0
 79
     0
146
0.0
  0
ENDTAB
  0
TABLE
  2
LTYPE
  5
5
330
0
100
AcDbSymbolTable
 70
     8
  0
LTYPE
  5
14
330
5
100
AcDbSymbolTableRecord
100
AcDbLinetypeTableRecord
  2
ByBlock
 70
     0
  3

 72
    65
 73
     0
 40
0.0
  0
LTYPE
  5
15
330
5
100
AcDbSymbolTableRecord
100
AcDbLinetypeTableRecord
  2
ByLayer
 70
     0
  3

 72
    65
 73
     0
 40
0.0
  0
LTYPE
  5
16
330
5
100
AcDbSymbolTableRecord
100
AcDbLinetypeTableRecord
  2
Continuous
 70
     0
  3
Solid line
 72
    65
 73
     0
 40
0.0
  0
LTYPE
  5
3F
330
5
100
AcDbSymbolTableRecord
100
AcDbLinetypeTableRecord
  2
DASHED
 70
     0
  3
Dashed
 72
    65
 73
     2
 40
15.0
 49
7.0
 74
     0
 49
-8.0
 74
     0
  0
LTYPE
  5
40
330
5
100
AcDbSymbolTableRecord
100
AcDbLinetypeTableRecord
  2
DOTTED
 70
     0
  3
Dotted
 72
    65
 73
     2
 40
1.0
 49
0.0
 74
     0
 49
-1.0
 74
     0
  0
LTYPE
  5
41
330
5
100
AcDbSymbolTableRecord
100
AcDbLinetypeTableRecord
  2
DOT_CENTER
 70
     0
  3
Dot_Center
 72
    65
 73
     4
 40
14.0
 49
12.0
 74
     0
 49
-1.0
 74
     0
 49
0.0
 74
     0
 49
-1.0
 74
     0
  0
LTYPE
  5
42
330
5
100
AcDbSymbolTableRecord
100
AcDbLinetypeTableRecord
  2
LONG_DASHED
 70
     0
  3
Long_Dashed
 72
    65
 73
     2
 40
15.0
 49
10.0
 74
     0
 49
-5.0
 74
     0
  0
LTYPE
  5
43
330
5
100
AcDbSymbolTableRecord
100
AcDbLinetypeTableRecord
  2
DASH_CENTER
 70
     0
  3
Dash_Center
 72
    65
 73
     4
 40
14.0
 49
11.0
 74
     0
 49
-1.0
 74
     0
 49
1.0
 74
     0
 49
-1.0
 74
     0
  0
LTYPE
  5
44
330
5
100
AcDbSymbolTableRecord
100
AcDbLinetypeTableRecord
  2
PHANTOM
 70
     0
  3
Phantom
 72
    65
 73
     6
 40
13.0
 49
10.0
 74
     0
 49
-1.0
 74
     0
 49
0.0
 74
     0
 49
-1.0
 74
     0
 49
0.0
 74
     0
 49
-1.0
 74
     0
  0
LTYPE
  5
45
330
5
100
AcDbSymbolTableRecord
100
AcDbLinetypeTableRecord
  2
CENTER_DASH_DASH
 70
     0
  3
Center_Dash_Dash
 72
    65
 73
     6
 40
14.0
 49
9.0
 74
     0
 49
-1.0
 74
     0
 49
1.0
 74
     0
 49
-1.0
 74
     0
 49
1.0
 74
     0
 49
-1.0
 74
     0
  0
ENDTAB
  0
TABLE
  2
LAYER
  5
2
330
0
100
AcDbSymbolTable
 70
     2
  0
LAYER
  5
10
330
2
100
AcDbSymbolTableRecord
100
AcDbLayerTableRecord
  2
0
 70
     0
 62
     7
  6
Continuous
370
    -3
390
F
  0
LAYER
  5
46
330
2
100
AcDbSymbolTableRecord
100
AcDbLayerTableRecord
  2
1
 70
     0
 62
     7
  6
Continuous
370
    -3
390
F
  0
ENDTAB
  0
TABLE
  2
STYLE
  5
3
330
0
100
AcDbSymbolTable
 70
     5
  0
STYLE
  5
11
330
3
100
AcDbSymbolTableRecord
100
AcDbTextStyleTableRecord
  2
Standard
 70
     0
 40
0.0
 41
1.0
 50
0.0
 71
     0
 42
0.2
  3
txt
  4

  0
STYLE
  5
17D
330
3
100
AcDbSymbolTableRecord
100
AcDbTextStyleTableRecord
  2
CONVERTER_11
 70
     0
 40
0.0
 41
0.9
 50
0.0
 71
     0
 42
0.2
  3
txt.shx
  4

  0
STYLE
  5
184
330
3
100
AcDbSymbolTableRecord
100
AcDbTextStyleTableRecord
  2
CONVERTER_12
 70
     0
 40
0.0
 41
0.81
 50
0.0
 71
     0
 42
0.2
  3
txt.shx
  4

  0
STYLE
  5
19A
330
3
100
AcDbSymbolTableRecord
100
AcDbTextStyleTableRecord
  2
CONVERTER_13
 70
     0
 40
0.0
 41
0.72
 50
0.0
 71
     0
 42
0.2
  3
txt.shx
  4

  0
STYLE
  5
19D
330
3
100
AcDbSymbolTableRecord
100
AcDbTextStyleTableRecord
  2
CONVERTER_14
 70
     0
 40
0.0
 41
0.855
 50
0.0
 71
     0
 42
0.2
  3
txt.shx
  4

  0
ENDTAB
  0
TABLE
  2
VIEW
  5
6
330
0
100
AcDbSymbolTable
 70
     0
  0
ENDTAB
  0
TABLE
  2
UCS
  5
7
330
0
100
AcDbSymbolTable
 70
     0
  0
ENDTAB
  0
TABLE
  2
APPID
  5
9
330
0
100
AcDbSymbolTable
 70
     1
  0
APPID
  5
12
330
9
100
AcDbSymbolTableRecord
100
AcDbRegAppTableRecord
  2
ACAD
 70
     0
  0
ENDTAB
  0
TABLE
  2
DIMSTYLE
  5
A
330
0
100
AcDbSymbolTable
 70
     4
100
AcDbDimStyleTable
  0
DIMSTYLE
105
27
330
A
100
AcDbSymbolTableRecord
100
AcDbDimStyleTableRecord
  2
Standard
 70
     0
178
     0
340
11
  0
DIMSTYLE
105
1F6
102
{ACAD_REACTORS
330
1F7
102
}
330
A
100
AcDbSymbolTableRecord
100
AcDbDimStyleTableRecord
  2
ME10_DIM_10
 70
     0
 41
1.75
 42
0.0
 44
0.75
 73
     0
 74
     0
 77
     1
 78
     8
140
1.75
147
0.75
172
     1
173
     1
174
     1
175
     1
176
     2
177
     2
178
     3
340
17D
  0
DIMSTYLE
105
203
102
{ACAD_REACTORS
330
204
102
}
330
A
100
AcDbSymbolTableRecord
100
AcDbDimStyleTableRecord
  2
ME10_DIM_11
 70
     0
 41
1.75
 42
0.0
 44
0.75
 73
     0
 74
     0
 77
     1
 78
     8
140
1.75
147
0.75
172
     1
173
     1
174
     1
175
     1
176
     2
177
     2
271
     2
178
     3
271
     2
340
17D
  0
DIMSTYLE
105
2B1
102
{ACAD_REACTORS
330
2B2
102
}
330
A
100
AcDbSymbolTableRecord
100
AcDbDimStyleTableRecord
  2
ME10_DIM_12
 70
     0
 41
1.75
 42
0.0
 44
0.75
 73
     0
 74
     0
 77
     1
 78
     8
140
1.75
147
0.75
172
     1
173
     1
174
     1
175
     1
176
     2
177
     2
271
     2
178
     3
271
     2
340
17D
  0
ENDTAB
  0
TABLE
  2
BLOCK_RECORD
  5
1
330
0
100
AcDbSymbolTable
 70
    20
  0
BLOCK_RECORD
  5
1F
330
1
100
AcDbSymbolTableRecord
100
AcDbBlockTableRecord
  2
*Model_Space
340
22
  0
BLOCK_RECORD
  5
1B
330
1
100
AcDbSymbolTableRecord
100
AcDbBlockTableRecord
  2
*Paper_Space
340
1E
  0
BLOCK_RECORD
  5
23
330
1
100
AcDbSymbolTableRecord
100
AcDbBlockTableRecord
  2
*Paper_Space0
340
26
  0
BLOCK_RECORD
  5
47
330
1
100
AcDbSymbolTableRecord
100
AcDbBlockTableRecord
  2
_rahmen
340
0
102
{BLKREFS
331
4E
102
}
  0
BLOCK_RECORD
  5
4A
330
1
100
AcDbSymbolTableRecord
100
AcDbBlockTableRecord
  2
_punkt
340
0
102
{BLKREFS
331
4F
102
}
  0
BLOCK_RECORD
  5
4D
330
1
100
AcDbSymbolTableRecord
100
AcDbBlockTableRecord
  2
A4I_CS
340
0
102
{BLKREFS
331
7D
102
}
  0
BLOCK_RECORD
  5
52
330
1
100
AcDbSymbolTableRecord
100
AcDbBlockTableRecord
  2
ESB_2-MZDB-select__1
340
0
102
{BLKREFS
331
56
102
}
  0
BLOCK_RECORD
  5
55
330
1
100
AcDbSymbolTableRecord
100
AcDbBlockTableRecord
  2
Back1
340
0
102
{BLKREFS
331
7E
102
}
  0
BLOCK_RECORD
  5
59
330
1
100
AcDbSymbolTableRecord
100
AcDbBlockTableRecord
  2
ESB_2-MZDB-select__2
340
0
102
{BLKREFS
331
5D
102
}
  0
BLOCK_RECORD
  5
5C
330
1
100
AcDbSymbolTableRecord
100
AcDbBlockTableRecord
  2
Front1
340
0
102
{BLKREFS
331
7F
102
}
  0
BLOCK_RECORD
  5
60
330
1
100
AcDbSymbolTableRecord
100
AcDbBlockTableRecord
  2
ESB_2-MZDB-select__3
340
0
102
{BLKREFS
331
64
102
}
  0
BLOCK_RECORD
  5
63
330
1
100
AcDbSymbolTableRecord
100
AcDbBlockTableRecord
  2
Gen1
340
0
102
{BLKREFS
331
80
102
}
  0
BLOCK_RECORD
  5
67
330
1
100
AcDbSymbolTableRecord
100
AcDbBlockTableRecord
  2
ESB_2-MZDB-select__4
340
0
102
{BLKREFS
331
6B
102
}
  0
BLOCK_RECORD
  5
6A
330
1
100
AcDbSymbolTableRecord
100
AcDbBlockTableRecord
  2
Left1
340
0
102
{BLKREFS
331
81
102
}
  0
BLOCK_RECORD
  5
6E
330
1
100
AcDbSymbolTableRecord
100
AcDbBlockTableRecord
  2
ESB_2-MZDB-select__5
340
0
102
{BLKREFS
331
72
102
}
  0
BLOCK_RECORD
  5
71
330
1
100
AcDbSymbolTableRecord
100
AcDbBlockTableRecord
  2
Right1
340
0
102
{BLKREFS
331
82
102
}
  0
BLOCK_RECORD
  5
75
330
1
100
AcDbSymbolTableRecord
100
AcDbBlockTableRecord
  2
ESB_2-MZDB-select__6
340
0
102
{BLKREFS
331
79
102
}
  0
BLOCK_RECORD
  5
78
330
1
100
AcDbSymbolTableRecord
100
AcDbBlockTableRecord
  2
Top1
340
0
102
{BLKREFS
331
83
102
}
  0
BLOCK_RECORD
  5
7C
330
1
100
AcDbSymbolTableRecord
100
AcDbBlockTableRecord
  2
1
340
0
102
{BLKREFS
331
86
102
}
  0
BLOCK_RECORD
  5
1ED
330
1
100
AcDbSymbolTableRecord
100
AcDbBlockTableRecord
  2
*D17
340
0
  0
BLOCK_RECORD
  5
1F8
330
1
100
AcDbSymbolTableRecord
100
AcDbBlockTableRecord
  2
*D18
340
0
  0
BLOCK_RECORD
  5
2A8
330
1
100
AcDbSymbolTableRecord
100
AcDbBlockTableRecord
  2
*D19
340
0
  0
ENDTAB
  0
ENDSEC
  0
SECTION
  2
BLOCKS
  0
BLOCK
  5
20
330
1F
100
AcDbEntity
  8
0
100
AcDbBlockBegin
  2
*Model_Space
 70
     0
 10
0.0
 20
0.0
 30
0.0
  3
*Model_Space
  1

  0
ENDBLK
  5
21
330
1F
100
AcDbEntity
  8
0
100
AcDbBlockEnd
  0
BLOCK
  5
1C
330
1B
100
AcDbEntity
 67
     1
  8
0
100
AcDbBlockBegin
  2
*Paper_Space
 70
     0
 10
0.0
 20
0.0
 30
0.0
  3
*Paper_Space
  1

  0
ENDBLK
  5
1D
330
1B
100
AcDbEntity
 67
     1
  8
0
100
AcDbBlockEnd
  0
BLOCK
  5
24
330
23
100
AcDbEntity
  8
0
100
AcDbBlockBegin
  2
*Paper_Space0
 70
     0
 10
0.0
 20
0.0
 30
0.0
  3
*Paper_Space0
  1

  0
ENDBLK
  5
25
330
23
100
AcDbEntity
  8
0
100
AcDbBlockEnd
  0
BLOCK
  5
48
330
47
100
AcDbEntity
  8
0
100
AcDbBlockBegin
  2
_rahmen
 70
     0
 10
47.06834422938373
 20
0.15039843919885
 30
0.0
  3
_rahmen
  1

  0
LINE
  5
87
330
47
100
AcDbEntity
  8
1
  6
Continuous
 62
     6
100
AcDbLine
 10
-82.47646029736629
 20
30.65039843919897
 30
0.0
 11
47.06834422938542
 21
30.65039843919897
 31
0.0
  0
LINE
  5
88
330
47
100
AcDbEntity
  8
1
  6
Continuous
 62
     7
100
AcDbLine
 10
-64.27646029736627
 20
9.40039843919897
 30
0.0
 11
-46.07646029736637
 21
9.40039843919897
 31
0.0
  0
LINE
  5
89
330
47
100
AcDbEntity
  8
1
  6
Continuous
 62
     6
100
AcDbLine
 10
-64.27646029736627
 20
5.15039843919897
 30
0.0
 11
-82.47646029736629
 21
5.15039843919885
 31
0.0
  0
LINE
  5
8A
330
47
100
AcDbEntity
  8
1
  6
Continuous
 62
     7
100
AcDbLine
 10
-64.27646029736627
 20
9.40039843919897
 30
0.0
 11
-64.27646029736627
 21
5.15039843919897
 31
0.0
  0
LINE
  5
8B
330
47
100
AcDbEntity
  8
1
  6
Continuous
 62
     7
100
AcDbLine
 10
-46.07646029736637
 20
9.40039843919897
 30
0.0
 11
-46.07646029736637
 21
5.15039843919885
 31
0.0
  0
LINE
  5
8C
330
47
100
AcDbEntity
  8
1
  6
Continuous
 62
     7
100
AcDbLine
 10
-82.47646029736629
 20
9.40039843919885
 30
0.0
 11
-82.47646029736629
 21
5.15039843919885
 31
0.0
  0
LINE
  5
8D
330
47
100
AcDbEntity
  8
1
  6
Continuous
 62
     7
100
AcDbLine
 10
-82.47646029736629
 20
9.40039843919885
 30
0.0
 11
-64.27646029736627
 21
9.40039843919897
 31
0.0
  0
LINE
  5
8E
330
47
100
AcDbEntity
  8
1
  6
Continuous
 62
     2
100
AcDbLine
 10
-73.23980541080368
 20
28.77539843919888
 30
0.0
 11
-73.23980541080368
 21
23.77539843919888
 31
0.0
  0
LINE
  5
8F
330
47
100
AcDbEntity
  8
1
  6
Continuous
 62
     2
100
AcDbLine
 10
-73.23980541080368
 20
23.77539843919888
 30
0.0
 11
-78.23980541080368
 21
25.02539843919888
 31
0.0
  0
LINE
  5
90
330
47
100
AcDbEntity
  8
1
  6
Continuous
 62
     2
100
AcDbLine
 10
-78.23980541080368
 20
25.02539843919888
 30
0.0
 11
-78.23980541080368
 21
27.52539843919888
 31
0.0
  0
LINE
  5
91
330
47
100
AcDbEntity
  8
1
  6
Continuous
 62
     2
100
AcDbLine
 10
-78.23980541080368
 20
27.52539843919888
 30
0.0
 11
-73.23980541080368
 21
28.77539843919888
 31
0.0
  0
LINE
  5
92
330
47
100
AcDbEntity
  8
1
  6
Continuous
 62
     6
100
AcDbLine
 10
-204.9316557706145
 20
5.15039843919897
 30
0.0
 11
-239.9316557706144
 21
5.15039843919897
 31
0.0
  0
LINE
  5
93
330
47
100
AcDbEntity
  8
1
  6
Continuous
 62
     6
100
AcDbLine
 10
47.06834422938542
 20
22.15039843919897
 30
0.0
 11
47.06834422938502
 21
13.65039843919897
 31
0.0
  0
LINE
  5
94
330
47
100
AcDbEntity
  8
1
  6
Continuous
 62
     6
100
AcDbLine
 10
-46.07646029736637
 20
5.15039843919885
 30
0.0
 11
-46.43165577061629
 21
5.15039843919897
 31
0.0
  0
LINE
  5
95
330
47
100
AcDbEntity
  8
1
  6
Continuous
 62
     6
100
AcDbLine
 10
-198.7316557706165
 20
5.15039843919885
 30
0.0
 11
-204.9316557706145
 21
5.15039843919897
 31
0.0
  0
LINE
  5
96
330
47
100
AcDbEntity
  8
1
  6
Continuous
 62
     7
100
AcDbLine
 10
-46.07646029736637
 20
22.15039843919897
 30
0.0
 11
-46.07646029736637
 21
9.40039843919897
 31
0.0
  0
LINE
  5
97
330
47
100
AcDbEntity
  8
1
  6
Continuous
 62
     7
100
AcDbLine
 10
-82.47646029736629
 20
22.15039843919897
 30
0.0
 11
-82.47646029736629
 21
9.40039843919885
 31
0.0
  0
LINE
  5
98
330
47
100
AcDbEntity
  8
1
  6
Continuous
 62
     6
100
AcDbLine
 10
-96.43165577061626
 20
5.15039843919897
 30
0.0
 11
-146.4316557706165
 21
5.15039843919897
 31
0.0
  0
LINE
  5
99
330
47
100
AcDbEntity
  8
1
  6
Continuous
 62
     6
100
AcDbLine
 10
-198.7316557706165
 20
5.15039843919885
 30
0.0
 11
-196.4316557706163
 21
5.15039843919897
 31
0.0
  0
LINE
  5
9A
330
47
100
AcDbEntity
  8
1
  6
Continuous
 62
     6
100
AcDbLine
 10
-46.07646029736637
 20
5.15039843919885
 30
0.0
 11
3.56834422938371
 21
5.15039843919897
 31
0.0
  0
LINE
  5
9B
330
47
100
AcDbEntity
  8
1
  6
Continuous
 62
     6
100
AcDbLine
 10
47.06834422938373
 20
5.15039843919897
 30
0.0
 11
47.06834422938502
 21
13.65039843919897
 31
0.0
  0
LINE
  5
9C
330
47
100
AcDbEntity
  8
1
  6
Continuous
 62
     2
100
AcDbLine
 10
-244.9316557706154
 20
5.15039843919897
 30
0.0
 11
-244.9316557706154
 21
0.15039843919885
 31
0.0
  0
LINE
  5
9D
330
47
100
AcDbEntity
  8
1
  6
Continuous
 62
     2
100
AcDbLine
 10
-239.9316557706144
 20
5.15039843919897
 30
0.0
 11
-244.9316557706154
 21
5.15039843919897
 31
0.0
  0
LINE
  5
9E
330
47
100
AcDbEntity
  8
1
  6
Continuous
 62
     2
100
AcDbLine
 10
-239.9316557706144
 20
0.15039843919885
 30
0.0
 11
-196.4316557706163
 21
0.15039843919885
 31
0.0
  0
LINE
  5
9F
330
47
100
AcDbEntity
  8
1
  6
Continuous
 62
     2
100
AcDbLine
 10
-239.9316557706144
 20
5.15039843919897
 30
0.0
 11
-239.9316557706144
 21
0.15039843919885
 31
0.0
  0
LINE
  5
A0
330
47
100
AcDbEntity
  8
1
  6
Continuous
 62
     2
100
AcDbLine
 10
3.56834422938371
 20
0.15039843919885
 30
0.0
 11
-46.43165577061629
 21
0.15039843919885
 31
0.0
  0
LINE
  5
A1
330
47
100
AcDbEntity
  8
1
  6
Continuous
 62
     2
100
AcDbLine
 10
3.56834422938371
 20
0.15039843919885
 30
0.0
 11
3.56834422938371
 21
5.15039843919897
 31
0.0
  0
LINE
  5
A2
330
47
100
AcDbEntity
  8
1
  6
Continuous
 62
     2
100
AcDbLine
 10
-46.43165577061629
 20
0.15039843919885
 30
0.0
 11
-46.43165577061629
 21
5.15039843919897
 31
0.0
  0
LINE
  5
A3
330
47
100
AcDbEntity
  8
1
  6
Continuous
 62
     2
100
AcDbLine
 10
-96.43165577061626
 20
0.15039843919885
 30
0.0
 11
-46.43165577061629
 21
0.15039843919885
 31
0.0
  0
LINE
  5
A4
330
47
100
AcDbEntity
  8
1
  6
Continuous
 62
     2
100
AcDbLine
 10
-96.43165577061626
 20
0.15039843919885
 30
0.0
 11
-96.43165577061626
 21
5.15039843919897
 31
0.0
  0
LINE
  5
A5
330
47
100
AcDbEntity
  8
1
  6
Continuous
 62
     2
100
AcDbLine
 10
-146.4316557706165
 20
0.15039843919885
 30
0.0
 11
-96.43165577061626
 21
0.15039843919885
 31
0.0
  0
LINE
  5
A6
330
47
100
AcDbEntity
  8
1
  6
Continuous
 62
     2
100
AcDbLine
 10
-146.4316557706165
 20
0.15039843919885
 30
0.0
 11
-146.4316557706165
 21
5.15039843919897
 31
0.0
  0
LINE
  5
A7
330
47
100
AcDbEntity
  8
1
  6
Continuous
 62
     2
100
AcDbLine
 10
-196.4316557706163
 20
0.15039843919885
 30
0.0
 11
-146.4316557706165
 21
0.15039843919885
 31
0.0
  0
LINE
  5
A8
330
47
100
AcDbEntity
  8
1
  6
Continuous
 62
     2
100
AcDbLine
 10
-196.4316557706163
 20
0.15039843919885
 30
0.0
 11
-196.4316557706163
 21
5.15039843919897
 31
0.0
  0
LINE
  5
A9
330
47
100
AcDbEntity
  8
1
  6
Continuous
 62
     6
100
AcDbLine
 10
-239.9316557706146
 20
55.15039843919908
 30
0.0
 11
-239.9316557706144
 21
5.15039843919897
 31
0.0
  0
LINE
  5
AA
330
47
100
AcDbEntity
  8
1
  6
Continuous
 62
     2
100
AcDbLine
 10
-244.9316557706154
 20
55.15039843919908
 30
0.0
 11
-244.9316557706154
 21
5.15039843919897
 31
0.0
  0
LINE
  5
AB
330
47
100
AcDbEntity
  8
1
  6
Continuous
 62
     2
100
AcDbLine
 10
-244.9316557706154
 20
55.15039843919908
 30
0.0
 11
-239.9316557706146
 21
55.15039843919908
 31
0.0
  0
LINE
  5
AC
330
47
100
AcDbEntity
  8
1
  6
Continuous
 62
     6
100
AcDbLine
 10
-239.9316557706148
 20
105.1503984391989
 30
0.0
 11
-239.9316557706146
 21
55.15039843919908
 31
0.0
  0
LINE
  5
AD
330
47
100
AcDbEntity
  8
1
  6
Continuous
 62
     2
100
AcDbLine
 10
-244.9316557706154
 20
105.1503984391989
 30
0.0
 11
-244.9316557706154
 21
55.15039843919908
 31
0.0
  0
LINE
  5
AE
330
47
100
AcDbEntity
  8
1
  6
Continuous
 62
     2
100
AcDbLine
 10
-244.9316557706154
 20
105.1503984391989
 30
0.0
 11
-239.9316557706148
 21
105.1503984391989
 31
0.0
  0
LINE
  5
AF
330
47
100
AcDbEntity
  8
1
  6
Continuous
 62
     6
100
AcDbLine
 10
-239.9316557706153
 20
155.150398439199
 30
0.0
 11
-239.9316557706148
 21
105.1503984391989
 31
0.0
  0
LINE
  5
B0
330
47
100
AcDbEntity
  8
1
  6
Continuous
 62
     2
100
AcDbLine
 10
-244.9316557706154
 20
155.150398439199
 30
0.0
 11
-244.9316557706154
 21
105.1503984391989
 31
0.0
  0
LINE
  5
B1
330
47
100
AcDbEntity
  8
1
  6
Continuous
 62
     2
100
AcDbLine
 10
-244.9316557706154
 20
155.150398439199
 30
0.0
 11
-239.9316557706153
 21
155.150398439199
 31
0.0
  0
LINE
  5
B2
330
47
100
AcDbEntity
  8
1
  6
Continuous
 62
     6
100
AcDbLine
 10
-239.9316557706154
 20
190.150398439199
 30
0.0
 11
-239.9316557706153
 21
155.150398439199
 31
0.0
  0
LINE
  5
B3
330
47
100
AcDbEntity
  8
1
  6
Continuous
 62
     2
100
AcDbLine
 10
-244.9316557706154
 20
210.150398439199
 30
0.0
 11
-244.9316557706154
 21
155.150398439199
 31
0.0
  0
LINE
  5
B4
330
47
100
AcDbEntity
  8
1
  6
Continuous
 62
     2
100
AcDbLine
 10
-244.9316557706154
 20
0.15039843919885
 30
0.0
 11
-239.9316557706144
 21
0.15039843919885
 31
0.0
  0
LINE
  5
B5
330
47
100
AcDbEntity
  8
1
  6
Continuous
 62
     2
100
AcDbLine
 10
-96.43165577061626
 20
210.150398439199
 30
0.0
 11
-96.43165577061626
 21
200.9417065944977
 31
0.0
  0
LINE
  5
B6
330
47
100
AcDbEntity
  8
1
  6
Continuous
 62
     2
100
AcDbLine
 10
-96.43165577061626
 20
210.150398439199
 30
0.0
 11
-244.9316557706154
 21
210.150398439199
 31
0.0
  0
LINE
  5
B7
330
47
100
AcDbEntity
  8
1
  6
Continuous
 62
     2
100
AcDbLine
 10
52.06834422938272
 20
5.15039843919897
 30
0.0
 11
52.06834422938272
 21
55.15039843919908
 31
0.0
  0
LINE
  5
B8
330
47
100
AcDbEntity
  8
1
  6
Continuous
 62
     2
100
AcDbLine
 10
52.06834422938272
 20
155.150398439199
 30
0.0
 11
52.06834422938272
 21
210.150398439199
 31
0.0
  0
LINE
  5
B9
330
47
100
AcDbEntity
  8
1
  6
Continuous
 62
     6
100
AcDbLine
 10
47.06834422938292
 20
155.150398439199
 30
0.0
 11
47.06834422938272
 21
190.150398439199
 31
0.0
  0
LINE
  5
BA
330
47
100
AcDbEntity
  8
1
  6
Continuous
 62
     2
100
AcDbLine
 10
47.06834422938292
 20
155.150398439199
 30
0.0
 11
52.06834422938272
 21
155.150398439199
 31
0.0
  0
LINE
  5
BB
330
47
100
AcDbEntity
  8
1
  6
Continuous
 62
     2
100
AcDbLine
 10
52.06834422938272
 20
105.1503984391989
 30
0.0
 11
52.06834422938272
 21
155.150398439199
 31
0.0
  0
LINE
  5
BC
330
47
100
AcDbEntity
  8
1
  6
Continuous
 62
     6
100
AcDbLine
 10
47.06834422938412
 20
105.1503984391989
 30
0.0
 11
47.06834422938292
 21
155.150398439199
 31
0.0
  0
LINE
  5
BD
330
47
100
AcDbEntity
  8
1
  6
Continuous
 62
     2
100
AcDbLine
 10
47.06834422938412
 20
105.1503984391989
 30
0.0
 11
52.06834422938272
 21
105.1503984391989
 31
0.0
  0
LINE
  5
BE
330
47
100
AcDbEntity
  8
1
  6
Continuous
 62
     2
100
AcDbLine
 10
52.06834422938272
 20
55.15039843919908
 30
0.0
 11
52.06834422938272
 21
105.1503984391989
 31
0.0
  0
LINE
  5
BF
330
47
100
AcDbEntity
  8
1
  6
Continuous
 62
     6
100
AcDbLine
 10
47.06834422938462
 20
55.15039843919908
 30
0.0
 11
47.06834422938412
 21
105.1503984391989
 31
0.0
  0
LINE
  5
C0
330
47
100
AcDbEntity
  8
1
  6
Continuous
 62
     2
100
AcDbLine
 10
47.06834422938462
 20
55.15039843919908
 30
0.0
 11
52.06834422938272
 21
55.15039843919908
 31
0.0
  0
LINE
  5
C1
330
47
100
AcDbEntity
  8
1
  6
Continuous
 62
     6
100
AcDbLine
 10
47.06834422938272
 20
190.150398439199
 30
0.0
 11
-239.9316557706154
 21
190.150398439199
 31
0.0
  0
LINE
  5
C2
330
47
100
AcDbEntity
  8
1
  6
Continuous
 62
     2
100
AcDbLine
 10
52.06834422938272
 20
210.150398439199
 30
0.0
 11
-96.43165577061626
 21
210.150398439199
 31
0.0
  0
LINE
  5
C3
330
47
100
AcDbEntity
  8
1
  6
Continuous
 62
     6
100
AcDbLine
 10
47.06834422938542
 20
22.15039843919897
 30
0.0
 11
47.06834422938462
 21
55.15039843919908
 31
0.0
  0
LINE
  5
C4
330
47
100
AcDbEntity
  8
1
  6
Continuous
 62
     2
100
AcDbLine
 10
47.06834422938373
 20
0.15039843919885
 30
0.0
 11
3.56834422938371
 21
0.15039843919885
 31
0.0
  0
LINE
  5
C5
330
47
100
AcDbEntity
  8
1
  6
Continuous
 62
     2
100
AcDbLine
 10
52.06834422938272
 20
0.15039843919885
 30
0.0
 11
47.06834422938373
 21
0.15039843919885
 31
0.0
  0
LINE
  5
C6
330
47
100
AcDbEntity
  8
1
  6
Continuous
 62
     2
100
AcDbLine
 10
52.06834422938272
 20
0.15039843919885
 30
0.0
 11
52.06834422938272
 21
5.15039843919897
 31
0.0
  0
LINE
  5
C7
330
47
100
AcDbEntity
  8
1
  6
Continuous
 62
     6
100
AcDbLine
 10
-82.47646029736629
 20
22.15039843919897
 30
0.0
 11
-46.07646029736637
 21
22.15039843919897
 31
0.0
  0
LINE
  5
C8
330
47
100
AcDbEntity
  8
1
  6
Continuous
 62
     2
100
AcDbLine
 10
47.06834422938373
 20
5.15039843919897
 30
0.0
 11
47.06834422938373
 21
0.15039843919885
 31
0.0
  0
LINE
  5
C9
330
47
100
AcDbEntity
  8
1
  6
Continuous
 62
     2
100
AcDbLine
 10
47.06834422938373
 20
5.15039843919897
 30
0.0
 11
52.06834422938272
 21
5.15039843919897
 31
0.0
  0
LINE
  5
CA
330
47
100
AcDbEntity
  8
1
  6
Continuous
 62
     6
100
AcDbLine
 10
-46.43165577061629
 20
5.15039843919897
 30
0.0
 11
-64.27646029736627
 21
5.15039843919897
 31
0.0
  0
LINE
  5
CB
330
47
100
AcDbEntity
  8
1
  6
Continuous
 62
     6
100
AcDbLine
 10
3.56834422938371
 20
5.15039843919897
 30
0.0
 11
47.06834422938373
 21
5.15039843919897
 31
0.0
  0
LINE
  5
CC
330
47
100
AcDbEntity
  8
1
  6
Continuous
 62
     6
100
AcDbLine
 10
-146.4316557706165
 20
5.15039843919897
 30
0.0
 11
-151.4764602973663
 21
5.15039843919897
 31
0.0
  0
LINE
  5
CD
330
47
100
AcDbEntity
  8
1
  6
Continuous
 62
     6
100
AcDbLine
 10
-96.43165577061626
 20
5.15039843919897
 30
0.0
 11
-82.47646029736629
 21
5.15039843919885
 31
0.0
  0
LINE
  5
CE
102
{ACAD_REACTORS
330
1B9
330
1BA
102
}
330
47
100
AcDbEntity
  8
0
  6
Continuous
 62
     2
100
AcDbLine
 10
-74.96183435521948
 20
17.22291319541108
 30
0.0
 11
-74.96183435521948
 21
17.82844848391787
 31
0.0
  0
LINE
  5
CF
102
{ACAD_REACTORS
330
1B9
330
1BA
102
}
330
47
100
AcDbEntity
  8
0
  6
Continuous
 62
     2
100
AcDbLine
 10
-74.96183435521948
 20
14.42277858877978
 30
0.0
 11
-74.96183435521948
 21
15.00462999547486
 31
0.0
  0
LINE
  5
D0
102
{ACAD_REACTORS
330
1BB
330
1BC
102
}
330
47
100
AcDbEntity
  8
0
  6
Continuous
 62
     2
100
AcDbLine
 10
-52.33234791974027
 20
14.71244265690277
 30
0.0
 11
-52.33234791974027
 21
12.44389843921528
 31
0.0
  0
LINE
  5
D1
102
{ACAD_REACTORS
330
1BB
330
1BC
102
}
330
47
100
AcDbEntity
  8
0
  6
Continuous
 62
     2
100
AcDbLine
 10
-53.71340169872786
 20
15.49770796302587
 30
0.0
 11
-50.32845618009918
 21
15.49770796302636
 31
0.0
  0
LINE
  5
D2
102
{ACAD_REACTORS
330
1BB
330
1BC
102
}
330
47
100
AcDbEntity
  8
0
  6
Continuous
 62
     2
100
AcDbLine
 10
-50.32845618009918
 20
14.71244265690277
 30
0.0
 11
-50.32845618009918
 21
15.49770796302636
 31
0.0
  0
LINE
  5
D3
102
{ACAD_REACTORS
330
1BB
330
1BC
102
}
330
47
100
AcDbEntity
  8
0
  6
Continuous
 62
     2
100
AcDbLine
 10
-51.13955521757256
 20
14.71244265690277
 30
0.0
 11
-50.32845618009918
 21
14.71244265690277
 31
0.0
  0
LINE
  5
D4
102
{ACAD_REACTORS
330
1BB
330
1BC
102
}
330
47
100
AcDbEntity
  8
0
  6
Continuous
 62
     2
100
AcDbLine
 10
-51.13955521757256
 20
12.44389843921528
 30
0.0
 11
-51.13955521757256
 21
14.71244265690277
 31
0.0
  0
LINE
  5
D5
102
{ACAD_REACTORS
330
1BB
330
1BC
102
}
330
47
100
AcDbEntity
  8
0
  6
Continuous
 62
     2
100
AcDbLine
 10
-52.33234791974027
 20
12.44389843921528
 30
0.0
 11
-51.13955521757256
 21
12.44389843921528
 31
0.0
  0
LINE
  5
D6
102
{ACAD_REACTORS
330
1B1
330
1B2
102
}
330
47
100
AcDbEntity
  8
0
  6
Continuous
 62
     2
100
AcDbLine
 10
-53.02893885780478
 20
18.85689843920076
 30
0.0
 11
-54.43166307555407
 21
18.85689843920076
 31
0.0
  0
LINE
  5
D7
102
{ACAD_REACTORS
330
1B1
330
1B2
102
}
330
47
100
AcDbEntity
  8
0
  6
Continuous
 62
     2
100
AcDbLine
 10
-53.02893885780478
 20
18.85689843920076
 30
0.0
 11
-52.42777133591298
 21
18.17707511764527
 31
0.0
  0
LINE
  5
D8
102
{ACAD_REACTORS
330
1B1
330
1B2
102
}
330
47
100
AcDbEntity
  8
0
  6
Continuous
 62
     2
100
AcDbLine
 10
-52.42777133591298
 20
18.17707511764527
 30
0.0
 11
-51.82660381402019
 21
18.85689843920076
 31
0.0
  0
LINE
  5
D9
102
{ACAD_REACTORS
330
1B1
330
1B2
102
}
330
47
100
AcDbEntity
  8
0
  6
Continuous
 62
     2
100
AcDbLine
 10
-51.72640922703948
 20
17.38394790916456
 30
0.0
 11
-50.42387959627297
 21
18.85689843920076
 31
0.0
  0
LINE
  5
DA
102
{ACAD_REACTORS
330
1B1
330
1B2
102
}
330
47
100
AcDbEntity
  8
0
  6
Continuous
 62
     2
100
AcDbLine
 10
-51.72640922703948
 20
17.38394790916456
 30
0.0
 11
-50.32845618009918
 21
15.80308891538957
 31
0.0
  0
LINE
  5
DB
102
{ACAD_REACTORS
330
1B1
330
1B2
102
}
330
47
100
AcDbEntity
  8
0
  6
Continuous
 62
     2
100
AcDbLine
 10
-51.73118039784748
 20
15.80308891538957
 30
0.0
 11
-50.32845618009918
 21
15.80308891538957
 31
0.0
  0
LINE
  5
DC
102
{ACAD_REACTORS
330
1B1
330
1B2
102
}
330
47
100
AcDbEntity
  8
0
  6
Continuous
 62
     2
100
AcDbLine
 10
-52.42777133591298
 20
16.59082070068328
 30
0.0
 11
-51.73118039784748
 21
15.80308891538957
 31
0.0
  0
LINE
  5
DD
102
{ACAD_REACTORS
330
1AF
330
1B0
102
}
330
47
100
AcDbEntity
  8
0
  6
Continuous
 62
     2
100
AcDbLine
 10
-55.88687017219667
 20
18.85689843920076
 30
0.0
 11
-54.64636576194377
 21
18.85689843920076
 31
0.0
  0
LINE
  5
DE
102
{ACAD_REACTORS
330
1AF
330
1B0
102
}
330
47
100
AcDbEntity
  8
0
  6
Continuous
 62
     2
100
AcDbLine
 10
-54.64636576194377
 20
18.85689843920076
 30
0.0
 11
-54.64636576194377
 21
15.80308891538957
 31
0.0
  0
LINE
  5
DF
102
{ACAD_REACTORS
330
1AF
330
1B0
102
}
330
47
100
AcDbEntity
  8
0
  6
Continuous
 62
     2
100
AcDbLine
 10
-55.88687017219667
 20
15.80308891538957
 30
0.0
 11
-55.88687017219667
 21
18.85689843920076
 31
0.0
  0
LINE
  5
E0
102
{ACAD_REACTORS
330
1AD
330
1AE
102
}
330
47
100
AcDbEntity
  8
0
  6
Continuous
 62
     2
100
AcDbLine
 10
-57.35518025473428
 20
13.66542224873976
 30
0.0
 11
-57.05501501754188
 21
14.43323721472646
 31
0.0
  0
LINE
  5
E1
102
{ACAD_REACTORS
330
1AD
330
1AE
102
}
330
47
100
AcDbEntity
  8
0
  6
Continuous
 62
     2
100
AcDbLine
 10
-57.83271585935509
 20
12.44389843921528
 30
0.0
 11
-57.62123580587928
 21
12.98485898343316
 31
0.0
  0
LINE
  5
E2
102
{ACAD_REACTORS
330
1AD
330
1AE
102
}
330
47
100
AcDbEntity
  8
0
  6
Continuous
 62
     2
100
AcDbLine
 10
-57.67526722266877
 20
15.49770796302636
 30
0.0
 11
-59.07322026960807
 21
12.44389843921528
 31
0.0
  0
LINE
  5
E3
102
{ACAD_REACTORS
330
1AD
330
1AE
102
}
330
47
100
AcDbEntity
  8
0
  6
Continuous
 62
     2
100
AcDbLine
 10
-55.03680976547577
 20
12.44389843921528
 30
0.0
 11
-56.27731417572969
 21
12.44389843921528
 31
0.0
  0
LINE
  5
E4
102
{ACAD_REACTORS
330
1AD
330
1AE
102
}
330
47
100
AcDbEntity
  8
0
  6
Continuous
 62
     2
100
AcDbLine
 10
-57.62123580587928
 20
12.98485898343316
 30
0.0
 11
-56.48879422920547
 21
12.98485898343316
 31
0.0
  0
LINE
  5
E5
102
{ACAD_REACTORS
330
1AB
330
1AC
102
}
330
47
100
AcDbEntity
  8
0
  6
Continuous
 62
     2
100
AcDbLine
 10
-61.23073240879029
 20
14.71244265690277
 30
0.0
 11
-60.41963337131568
 21
14.71244265690277
 31
0.0
  0
LINE
  5
E6
102
{ACAD_REACTORS
330
1AB
330
1AC
102
}
330
47
100
AcDbEntity
  8
0
  6
Continuous
 62
     2
100
AcDbLine
 10
-58.41574163167667
 20
15.49770796302636
 30
0.0
 11
-61.23073240879029
 21
15.49770796302636
 31
0.0
  0
LINE
  5
E7
102
{ACAD_REACTORS
330
1AB
330
1AC
102
}
330
47
100
AcDbEntity
  8
0
  6
Continuous
 62
     2
100
AcDbLine
 10
-58.41574163167667
 20
14.71244265690277
 30
0.0
 11
-58.41574163167667
 21
15.49770796302636
 31
0.0
  0
LINE
  5
E8
102
{ACAD_REACTORS
330
1AB
330
1AC
102
}
330
47
100
AcDbEntity
  8
0
  6
Continuous
 62
     2
100
AcDbLine
 10
-59.22684066914917
 20
14.71244265690277
 30
0.0
 11
-58.41574163167667
 21
14.71244265690277
 31
0.0
  0
LINE
  5
E9
102
{ACAD_REACTORS
330
1AB
330
1AC
102
}
330
47
100
AcDbEntity
  8
0
  6
Continuous
 62
     2
100
AcDbLine
 10
-59.22684066914917
 20
12.44389843921528
 30
0.0
 11
-59.22684066914917
 21
14.71244265690277
 31
0.0
  0
LINE
  5
EA
102
{ACAD_REACTORS
330
1A9
330
1AA
102
}
330
47
100
AcDbEntity
  8
0
  6
Continuous
 62
     2
100
AcDbLine
 10
-58.55872582505117
 20
15.80308891538957
 30
0.0
 11
-58.55872582505117
 21
17.11186442559426
 31
0.0
  0
LINE
  5
EB
102
{ACAD_REACTORS
330
1A9
330
1AA
102
}
330
47
100
AcDbEntity
  8
0
  6
Continuous
 62
     2
100
AcDbLine
 10
-59.75151852721768
 20
18.85689843920076
 30
0.0
 11
-59.75151852721768
 21
15.80308891538957
 31
0.0
  0
LINE
  5
EC
102
{ACAD_REACTORS
330
1A9
330
1AA
102
}
330
47
100
AcDbEntity
  8
0
  6
Continuous
 62
     2
100
AcDbLine
 10
-58.55872582505117
 20
18.85689843920076
 30
0.0
 11
-59.75151852721768
 21
18.85689843920076
 31
0.0
  0
LINE
  5
ED
102
{ACAD_REACTORS
330
1A9
330
1AA
102
}
330
47
100
AcDbEntity
  8
0
  6
Continuous
 62
     2
100
AcDbLine
 10
-57.31822141479717
 20
18.85689843920076
 30
0.0
 11
-57.31822141479717
 21
17.54812292899558
 31
0.0
  0
LINE
  5
EE
102
{ACAD_REACTORS
330
1A7
330
1A8
102
}
330
47
100
AcDbEntity
  8
0
  6
Continuous
 62
     2
100
AcDbLine
 10
-64.99995734763738
 20
15.49770796302636
 30
0.0
 11
-64.99995734763738
 21
12.44389843921528
 31
0.0
  0
LINE
  5
EF
102
{ACAD_REACTORS
330
1A7
330
1A8
102
}
330
47
100
AcDbEntity
  8
0
  6
Continuous
 62
     2
100
AcDbLine
 10
-63.80716464546978
 20
15.49770796302636
 30
0.0
 11
-64.99995734763738
 21
15.49770796302636
 31
0.0
  0
LINE
  5
F0
102
{ACAD_REACTORS
330
1A7
330
1A8
102
}
330
47
100
AcDbEntity
  8
0
  6
Continuous
 62
     2
100
AcDbLine
 10
-62.56666023521689
 20
12.44389843921528
 30
0.0
 11
-61.37386753305049
 21
12.44389843921528
 31
0.0
  0
LINE
  5
F1
102
{ACAD_REACTORS
330
1A7
330
1A8
102
}
330
47
100
AcDbEntity
  8
0
  6
Continuous
 62
     2
100
AcDbLine
 10
-64.99995734763738
 20
12.44389843921528
 30
0.0
 11
-63.80716464546978
 21
12.44389843921528
 31
0.0
  0
LINE
  5
F2
102
{ACAD_REACTORS
330
1B7
330
1B8
102
}
330
47
100
AcDbEntity
  8
0
  6
Continuous
 62
     2
100
AcDbLine
 10
-61.32600489407827
 20
17.67900048001607
 30
0.0
 11
-61.32600489407827
 21
18.15888483375778
 31
0.0
  0
LINE
  5
F3
102
{ACAD_REACTORS
330
1B7
330
1B8
102
}
330
47
100
AcDbEntity
  8
0
  6
Continuous
 62
     2
100
AcDbLine
 10
-59.99007706765059
 20
17.67900048001607
 30
0.0
 11
-61.32600489407827
 21
17.67900048001607
 31
0.0
  0
LINE
  5
F4
102
{ACAD_REACTORS
330
1B7
330
1B8
102
}
330
47
100
AcDbEntity
  8
0
  6
Continuous
 62
     2
100
AcDbLine
 10
-59.99007706765059
 20
16.98098687457377
 30
0.0
 11
-59.99007706765059
 21
17.67900048001607
 31
0.0
  0
LINE
  5
F5
102
{ACAD_REACTORS
330
1B7
330
1B8
102
}
330
47
100
AcDbEntity
  8
0
  6
Continuous
 62
     2
100
AcDbLine
 10
-61.32600489407827
 20
16.98098687457377
 30
0.0
 11
-59.99007706765059
 21
16.98098687457377
 31
0.0
  0
LINE
  5
F6
102
{ACAD_REACTORS
330
1A5
330
1A6
102
}
330
47
100
AcDbEntity
  8
0
  6
Continuous
 62
     2
100
AcDbLine
 10
-64.80895958440519
 20
18.85689843920076
 30
0.0
 11
-64.80895958440519
 21
15.80308891538957
 31
0.0
  0
LINE
  5
F7
102
{ACAD_REACTORS
330
1A5
330
1A6
102
}
330
47
100
AcDbEntity
  8
0
  6
Continuous
 62
     2
100
AcDbLine
 10
-64.80895958440519
 20
15.80308891538957
 30
0.0
 11
-66.00175228657159
 21
15.80308891538957
 31
0.0
  0
LINE
  5
F8
102
{ACAD_REACTORS
330
1A5
330
1A6
102
}
330
47
100
AcDbEntity
  8
0
  6
Continuous
 62
     2
100
AcDbLine
 10
-66.00175228657159
 20
15.80308891538957
 30
0.0
 11
-66.00175228657159
 21
16.93736102423338
 31
0.0
  0
LINE
  5
F9
102
{ACAD_REACTORS
330
1A5
330
1A6
102
}
330
47
100
AcDbEntity
  8
0
  6
Continuous
 62
     2
100
AcDbLine
 10
-67.05140986447907
 20
15.80308891538957
 30
0.0
 11
-68.24420256664567
 21
15.80308891538957
 31
0.0
  0
LINE
  5
FA
102
{ACAD_REACTORS
330
1A5
330
1A6
102
}
330
47
100
AcDbEntity
  8
0
  6
Continuous
 62
     2
100
AcDbLine
 10
-68.24420256664567
 20
18.85689843920076
 30
0.0
 11
-67.05140986447907
 21
18.85689843920076
 31
0.0
  0
LINE
  5
FB
102
{ACAD_REACTORS
330
1A5
330
1A6
102
}
330
47
100
AcDbEntity
  8
0
  6
Continuous
 62
     2
100
AcDbLine
 10
-67.05140986447907
 20
18.85689843920076
 30
0.0
 11
-67.05140986447907
 21
17.78806510586617
 31
0.0
  0
LINE
  5
FC
102
{ACAD_REACTORS
330
1A5
330
1A6
102
}
330
47
100
AcDbEntity
  8
0
  6
Continuous
 62
     2
100
AcDbLine
 10
-67.05140986447907
 20
17.78806510586617
 30
0.0
 11
-66.00175228657159
 21
17.78806510586617
 31
0.0
  0
LINE
  5
FD
102
{ACAD_REACTORS
330
1B3
330
1B4
102
}
330
47
100
AcDbEntity
  8
0
  6
Continuous
 62
     2
100
AcDbLine
 10
-70.20038259819927
 20
18.19379259376066
 30
0.0
 11
-69.88308753665737
 21
18.19379259376066
 31
0.0
  0
LINE
  5
FE
102
{ACAD_REACTORS
330
1B3
330
1B4
102
}
330
47
100
AcDbEntity
  8
0
  6
Continuous
 62
     2
100
AcDbLine
 10
-70.20038259819927
 20
17.48806494441845
 30
0.0
 11
-69.88308753665737
 21
17.48806494441845
 31
0.0
  0
LINE
  5
FF
102
{ACAD_REACTORS
330
1B3
330
1B4
102
}
330
47
100
AcDbEntity
  8
0
  6
Continuous
 62
     2
100
AcDbLine
 10
-71.44088700845339
 20
18.85689843920076
 30
0.0
 11
-71.44088700845339
 21
15.80308891538957
 31
0.0
  0
LINE
  5
100
102
{ACAD_REACTORS
330
1B3
330
1B4
102
}
330
47
100
AcDbEntity
  8
0
  6
Continuous
 62
     2
100
AcDbLine
 10
-71.44088700845339
 20
18.85689843920076
 30
0.0
 11
-69.44161501041899
 21
18.85689843920076
 31
0.0
  0
LINE
  5
101
102
{ACAD_REACTORS
330
1B3
330
1B4
102
}
330
47
100
AcDbEntity
  8
0
  6
Continuous
 62
     2
100
AcDbLine
 10
-70.20038259819927
 20
16.74616715653338
 30
0.0
 11
-69.44161501041899
 21
16.74616715653338
 31
0.0
  0
LINE
  5
102
102
{ACAD_REACTORS
330
1B9
330
1BA
102
}
330
47
100
AcDbEntity
  8
0
  6
Continuous
 62
     2
100
AcDbLine
 10
-77.53738304175008
 20
17.82862596056597
 30
0.0
 11
-77.53738304175008
 21
13.47217091784887
 31
0.0
  0
LINE
  5
103
102
{ACAD_REACTORS
330
1B9
330
1BA
102
}
330
47
100
AcDbEntity
  8
0
  6
Continuous
 62
     2
100
AcDbLine
 10
-77.22166611867439
 20
18.14434288364217
 30
0.0
 11
-75.74583285766477
 21
18.14434288364217
 31
0.0
  0
LINE
  5
104
102
{ACAD_REACTORS
330
1B9
330
1BA
102
}
330
47
100
AcDbEntity
  8
0
  6
Continuous
 62
     2
100
AcDbLine
 10
-75.43011593458817
 20
17.22460134150546
 30
0.0
 11
-75.43011593458817
 21
17.82862596056597
 31
0.0
  0
LINE
  5
105
102
{ACAD_REACTORS
330
1B9
330
1BA
102
}
330
47
100
AcDbEntity
  8
0
  6
Continuous
 62
     2
100
AcDbLine
 10
-75.43011593458817
 20
13.47217091784887
 30
0.0
 11
-75.43011593458817
 21
15.00294184938048
 31
0.0
  0
LINE
  5
106
102
{ACAD_REACTORS
330
1B9
330
1BA
102
}
330
47
100
AcDbEntity
  8
0
  6
Continuous
 62
     2
100
AcDbLine
 10
-72.34224870470408
 20
12.44389843921528
 30
0.0
 11
-77.81556079542088
 21
12.44389843921528
 31
0.0
  0
LINE
  5
107
102
{ACAD_REACTORS
330
1B9
330
1BA
102
}
330
47
100
AcDbEntity
  8
0
  6
Continuous
 62
     2
100
AcDbLine
 10
-71.91800408932019
 20
18.43265382379877
 30
0.0
 11
-71.91800408932019
 21
12.86814305459856
 31
0.0
  0
LINE
  5
108
102
{ACAD_REACTORS
330
1B9
330
1BA
102
}
330
47
100
AcDbEntity
  8
0
  6
Continuous
 62
     2
100
AcDbLine
 10
-77.81556079542088
 20
18.85689843918257
 30
0.0
 11
-72.34224870470408
 21
18.85689843918257
 31
0.0
  0
LINE
  5
109
102
{ACAD_REACTORS
330
1B9
330
1BA
102
}
330
47
100
AcDbEntity
  8
0
  6
Continuous
 62
     2
100
AcDbLine
 10
-78.23980541080368
 20
18.43265382379877
 30
0.0
 11
-78.23980541080368
 21
12.86814305459856
 31
0.0
  0
LINE
  5
10A
102
{ACAD_REACTORS
330
1B9
330
1BA
102
}
330
47
100
AcDbEntity
  8
0
  6
Continuous
 62
     2
100
AcDbLine
 10
-75.74583285766477
 20
13.15645399477216
 30
0.0
 11
-77.22166611867439
 21
13.15645399477216
 31
0.0
  0
LINE
  5
10B
102
{ACAD_REACTORS
330
1B3
330
1B4
102
}
330
47
100
AcDbEntity
  8
0
  6
Continuous
 62
     2
100
AcDbLine
 10
-70.20038259819927
 20
15.80308891538957
 30
0.0
 11
-70.20038259819927
 21
16.74616715653338
 31
0.0
  0
LINE
  5
10C
102
{ACAD_REACTORS
330
1B3
330
1B4
102
}
330
47
100
AcDbEntity
  8
0
  6
Continuous
 62
     2
100
AcDbLine
 10
-71.44088700845339
 20
15.80308891538957
 30
0.0
 11
-70.20038259819927
 21
15.80308891538957
 31
0.0
  0
LINE
  5
10D
102
{ACAD_REACTORS
330
1B3
330
1B4
102
}
330
47
100
AcDbEntity
  8
0
  6
Continuous
 62
     2
100
AcDbLine
 10
-70.20038259819927
 20
17.48806494441845
 30
0.0
 11
-70.20038259819927
 21
18.19379259376066
 31
0.0
  0
LINE
  5
10E
102
{ACAD_REACTORS
330
1A5
330
1A6
102
}
330
47
100
AcDbEntity
  8
0
  6
Continuous
 62
     2
100
AcDbLine
 10
-68.24420256664567
 20
18.85689843920076
 30
0.0
 11
-68.24420256664567
 21
15.80308891538957
 31
0.0
  0
LINE
  5
10F
102
{ACAD_REACTORS
330
1A5
330
1A6
102
}
330
47
100
AcDbEntity
  8
0
  6
Continuous
 62
     2
100
AcDbLine
 10
-67.05140986447907
 20
16.93736102423338
 30
0.0
 11
-67.05140986447907
 21
15.80308891538957
 31
0.0
  0
LINE
  5
110
102
{ACAD_REACTORS
330
1A5
330
1A6
102
}
330
47
100
AcDbEntity
  8
0
  6
Continuous
 62
     2
100
AcDbLine
 10
-66.00175228657159
 20
16.93736102423338
 30
0.0
 11
-67.05140986447907
 21
16.93736102423338
 31
0.0
  0
LINE
  5
111
102
{ACAD_REACTORS
330
1A5
330
1A6
102
}
330
47
100
AcDbEntity
  8
0
  6
Continuous
 62
     2
100
AcDbLine
 10
-66.00175228657159
 20
18.85689843920076
 30
0.0
 11
-64.80895958440519
 21
18.85689843920076
 31
0.0
  0
LINE
  5
112
102
{ACAD_REACTORS
330
1A5
330
1A6
102
}
330
47
100
AcDbEntity
  8
0
  6
Continuous
 62
     2
100
AcDbLine
 10
-66.00175228657159
 20
17.78806510586617
 30
0.0
 11
-66.00175228657159
 21
18.85689843920076
 31
0.0
  0
LINE
  5
113
102
{ACAD_REACTORS
330
1B7
330
1B8
102
}
330
47
100
AcDbEntity
  8
0
  6
Continuous
 62
     2
100
AcDbLine
 10
-59.99007706765059
 20
18.15888483375778
 30
0.0
 11
-59.99007706765059
 21
18.85689843920076
 31
0.0
  0
LINE
  5
114
102
{ACAD_REACTORS
330
1B7
330
1B8
102
}
330
47
100
AcDbEntity
  8
0
  6
Continuous
 62
     2
100
AcDbLine
 10
-63.14039679143158
 20
18.85689843920076
 30
0.0
 11
-59.99007706765059
 21
18.85689843920076
 31
0.0
  0
LINE
  5
115
102
{ACAD_REACTORS
330
1B7
330
1B8
102
}
330
47
100
AcDbEntity
  8
0
  6
Continuous
 62
     2
100
AcDbLine
 10
-63.14039679143158
 20
15.80308891538957
 30
0.0
 11
-59.99007706765059
 21
15.80308891538957
 31
0.0
  0
LINE
  5
116
102
{ACAD_REACTORS
330
1B7
330
1B8
102
}
330
47
100
AcDbEntity
  8
0
  6
Continuous
 62
     2
100
AcDbLine
 10
-59.99007706765059
 20
15.80308891538957
 30
0.0
 11
-59.99007706765059
 21
16.50110252083206
 31
0.0
  0
LINE
  5
117
102
{ACAD_REACTORS
330
1B7
330
1B8
102
}
330
47
100
AcDbEntity
  8
0
  6
Continuous
 62
     2
100
AcDbLine
 10
-59.99007706765059
 20
16.50110252083206
 30
0.0
 11
-61.32600489407827
 21
16.50110252083206
 31
0.0
  0
LINE
  5
118
102
{ACAD_REACTORS
330
1B7
330
1B8
102
}
330
47
100
AcDbEntity
  8
0
  6
Continuous
 62
     2
100
AcDbLine
 10
-61.32600489407827
 20
16.50110252083206
 30
0.0
 11
-61.32600489407827
 21
16.98098687457377
 31
0.0
  0
LINE
  5
119
102
{ACAD_REACTORS
330
1B7
330
1B8
102
}
330
47
100
AcDbEntity
  8
0
  6
Continuous
 62
     2
100
AcDbLine
 10
-61.32600489407827
 20
18.15888483375778
 30
0.0
 11
-59.99007706765059
 21
18.15888483375778
 31
0.0
  0
LINE
  5
11A
102
{ACAD_REACTORS
330
1A7
330
1A8
102
}
330
47
100
AcDbEntity
  8
0
  6
Continuous
 62
     2
100
AcDbLine
 10
-63.80716464546978
 20
12.44389843921528
 30
0.0
 11
-63.80716464546978
 21
13.75267394941986
 31
0.0
  0
LINE
  5
11B
102
{ACAD_REACTORS
330
1A7
330
1A8
102
}
330
47
100
AcDbEntity
  8
0
  6
Continuous
 62
     2
100
AcDbLine
 10
-63.80716464546978
 20
13.75267394941986
 30
0.0
 11
-62.56666023521689
 21
12.44389843921528
 31
0.0
  0
LINE
  5
11C
102
{ACAD_REACTORS
330
1A7
330
1A8
102
}
330
47
100
AcDbEntity
  8
0
  6
Continuous
 62
     2
100
AcDbLine
 10
-61.37386753305049
 20
12.44389843921528
 30
0.0
 11
-61.37386753305049
 21
15.49770796302636
 31
0.0
  0
LINE
  5
11D
102
{ACAD_REACTORS
330
1A7
330
1A8
102
}
330
47
100
AcDbEntity
  8
0
  6
Continuous
 62
     2
100
AcDbLine
 10
-61.37386753305049
 20
15.49770796302636
 30
0.0
 11
-62.56666023521689
 21
15.49770796302636
 31
0.0
  0
LINE
  5
11E
102
{ACAD_REACTORS
330
1A7
330
1A8
102
}
330
47
100
AcDbEntity
  8
0
  6
Continuous
 62
     2
100
AcDbLine
 10
-62.56666023521689
 20
15.49770796302636
 30
0.0
 11
-62.56666023521689
 21
14.18893245282126
 31
0.0
  0
LINE
  5
11F
102
{ACAD_REACTORS
330
1A7
330
1A8
102
}
330
47
100
AcDbEntity
  8
0
  6
Continuous
 62
     2
100
AcDbLine
 10
-62.56666023521689
 20
14.18893245282126
 30
0.0
 11
-63.80716464546978
 21
15.49770796302636
 31
0.0
  0
LINE
  5
120
102
{ACAD_REACTORS
330
1A9
330
1AA
102
}
330
47
100
AcDbEntity
  8
0
  6
Continuous
 62
     2
100
AcDbLine
 10
-58.55872582505117
 20
17.11186442559426
 30
0.0
 11
-57.31822141479717
 21
15.80308891538957
 31
0.0
  0
LINE
  5
121
102
{ACAD_REACTORS
330
1A9
330
1AA
102
}
330
47
100
AcDbEntity
  8
0
  6
Continuous
 62
     2
100
AcDbLine
 10
-57.31822141479717
 20
15.80308891538957
 30
0.0
 11
-56.12542871263057
 21
15.80308891538957
 31
0.0
  0
LINE
  5
122
102
{ACAD_REACTORS
330
1A9
330
1AA
102
}
330
47
100
AcDbEntity
  8
0
  6
Continuous
 62
     2
100
AcDbLine
 10
-56.12542871263057
 20
15.80308891538957
 30
0.0
 11
-56.12542871263057
 21
18.85689843920076
 31
0.0
  0
LINE
  5
123
102
{ACAD_REACTORS
330
1A9
330
1AA
102
}
330
47
100
AcDbEntity
  8
0
  6
Continuous
 62
     2
100
AcDbLine
 10
-56.12542871263057
 20
18.85689843920076
 30
0.0
 11
-57.31822141479717
 21
18.85689843920076
 31
0.0
  0
LINE
  5
124
102
{ACAD_REACTORS
330
1A9
330
1AA
102
}
330
47
100
AcDbEntity
  8
0
  6
Continuous
 62
     2
100
AcDbLine
 10
-57.31822141479717
 20
17.54812292899558
 30
0.0
 11
-58.55872582505117
 21
18.85689843920076
 31
0.0
  0
LINE
  5
125
102
{ACAD_REACTORS
330
1A9
330
1AA
102
}
330
47
100
AcDbEntity
  8
0
  6
Continuous
 62
     2
100
AcDbLine
 10
-59.75151852721768
 20
15.80308891538957
 30
0.0
 11
-58.55872582505117
 21
15.80308891538957
 31
0.0
  0
LINE
  5
126
102
{ACAD_REACTORS
330
1AB
330
1AC
102
}
330
47
100
AcDbEntity
  8
0
  6
Continuous
 62
     2
100
AcDbLine
 10
-61.23073240879029
 20
15.49770796302636
 30
0.0
 11
-61.23073240879029
 21
14.71244265690277
 31
0.0
  0
LINE
  5
127
102
{ACAD_REACTORS
330
1AB
330
1AC
102
}
330
47
100
AcDbEntity
  8
0
  6
Continuous
 62
     2
100
AcDbLine
 10
-60.41963337131568
 20
14.71244265690277
 30
0.0
 11
-60.41963337131568
 21
12.44389843921528
 31
0.0
  0
LINE
  5
128
102
{ACAD_REACTORS
330
1AB
330
1AC
102
}
330
47
100
AcDbEntity
  8
0
  6
Continuous
 62
     2
100
AcDbLine
 10
-60.41963337131568
 20
12.44389843921528
 30
0.0
 11
-59.22684066914917
 21
12.44389843921528
 31
0.0
  0
LINE
  5
129
102
{ACAD_REACTORS
330
1AD
330
1AE
102
}
330
47
100
AcDbEntity
  8
0
  6
Continuous
 62
     2
100
AcDbLine
 10
-56.27731417572969
 20
12.44389843921528
 30
0.0
 11
-56.48879422920547
 21
12.98485898343316
 31
0.0
  0
LINE
  5
12A
102
{ACAD_REACTORS
330
1AD
330
1AE
102
}
330
47
100
AcDbEntity
  8
0
  6
Continuous
 62
     2
100
AcDbLine
 10
-56.43476281241607
 20
15.49770796302636
 30
0.0
 11
-55.03680976547577
 21
12.44389843921528
 31
0.0
  0
LINE
  5
12B
102
{ACAD_REACTORS
330
1AD
330
1AE
102
}
330
47
100
AcDbEntity
  8
0
  6
Continuous
 62
     2
100
AcDbLine
 10
-57.67526722266877
 20
15.49770796302636
 30
0.0
 11
-56.43476281241607
 21
15.49770796302636
 31
0.0
  0
LINE
  5
12C
102
{ACAD_REACTORS
330
1AD
330
1AE
102
}
330
47
100
AcDbEntity
  8
0
  6
Continuous
 62
     2
100
AcDbLine
 10
-59.07322026960807
 20
12.44389843921528
 30
0.0
 11
-57.83271585935509
 21
12.44389843921528
 31
0.0
  0
LINE
  5
12D
102
{ACAD_REACTORS
330
1AD
330
1AE
102
}
330
47
100
AcDbEntity
  8
0
  6
Continuous
 62
     2
100
AcDbLine
 10
-57.35518025473428
 20
13.66542224873976
 30
0.0
 11
-56.75484978035178
 21
13.66542224873976
 31
0.0
  0
LINE
  5
12E
102
{ACAD_REACTORS
330
1AD
330
1AE
102
}
330
47
100
AcDbEntity
  8
0
  6
Continuous
 62
     2
100
AcDbLine
 10
-56.75484978035178
 20
13.66542224873976
 30
0.0
 11
-57.05501501754188
 21
14.43323721472646
 31
0.0
  0
LINE
  5
12F
102
{ACAD_REACTORS
330
1AF
330
1B0
102
}
330
47
100
AcDbEntity
  8
0
  6
Continuous
 62
     2
100
AcDbLine
 10
-54.64636576194377
 20
15.80308891538957
 30
0.0
 11
-55.88687017219667
 21
15.80308891538957
 31
0.0
  0
LINE
  5
130
102
{ACAD_REACTORS
330
1B1
330
1B2
102
}
330
47
100
AcDbEntity
  8
0
  6
Continuous
 62
     2
100
AcDbLine
 10
-53.12436227397868
 20
15.80308891538957
 30
0.0
 11
-54.52708649172689
 21
15.80308891538957
 31
0.0
  0
LINE
  5
131
102
{ACAD_REACTORS
330
1B1
330
1B2
102
}
330
47
100
AcDbEntity
  8
0
  6
Continuous
 62
     2
100
AcDbLine
 10
-53.12436227397868
 20
15.80308891538957
 30
0.0
 11
-52.42777133591298
 21
16.59082070068328
 31
0.0
  0
LINE
  5
132
102
{ACAD_REACTORS
330
1B1
330
1B2
102
}
330
47
100
AcDbEntity
  8
0
  6
Continuous
 62
     2
100
AcDbLine
 10
-51.82660381402019
 20
18.85689843920076
 30
0.0
 11
-50.42387959627297
 21
18.85689843920076
 31
0.0
  0
LINE
  5
133
102
{ACAD_REACTORS
330
1B1
330
1B2
102
}
330
47
100
AcDbEntity
  8
0
  6
Continuous
 62
     2
100
AcDbLine
 10
-54.43166307555407
 20
18.85689843920076
 30
0.0
 11
-53.12913344478659
 21
17.38394790916456
 31
0.0
  0
LINE
  5
134
102
{ACAD_REACTORS
330
1B1
330
1B2
102
}
330
47
100
AcDbEntity
  8
0
  6
Continuous
 62
     2
100
AcDbLine
 10
-54.52708649172689
 20
15.80308891538957
 30
0.0
 11
-53.12913344478659
 21
17.38394790916456
 31
0.0
  0
LINE
  5
135
102
{ACAD_REACTORS
330
1BB
330
1BC
102
}
330
47
100
AcDbEntity
  8
0
  6
Continuous
 62
     2
100
AcDbLine
 10
-52.66632987634696
 20
13.49091884737888
 30
0.0
 11
-52.66632987634696
 21
12.61840184057556
 31
0.0
  0
LINE
  5
136
102
{ACAD_REACTORS
330
1BB
330
1BC
102
}
330
47
100
AcDbEntity
  8
0
  6
Continuous
 62
     2
100
AcDbLine
 10
-53.43598721930837
 20
14.71244265690277
 30
0.0
 11
-52.33234791974027
 21
14.71244265690277
 31
0.0
  0
LINE
  5
137
102
{ACAD_REACTORS
330
1BD
330
1BE
102
}
330
47
100
AcDbEntity
  8
0
  6
Continuous
 62
     2
100
AcDbLine
 10
-68.76903135559888
 20
13.49091884737936
 30
0.0
 11
-68.76903135559888
 21
12.61840184057616
 31
0.0
  0
LINE
  5
138
102
{ACAD_REACTORS
330
1BD
330
1BE
102
}
330
47
100
AcDbEntity
  8
0
  6
Continuous
 62
     2
100
AcDbLine
 10
-68.76903135559888
 20
14.45068755486227
 30
0.0
 11
-68.76903135559888
 21
15.32320456166556
 31
0.0
  0
LINE
  5
139
330
47
100
AcDbEntity
  8
1
  6
Continuous
 62
     7
100
AcDbLine
 10
47.06834422938502
 20
13.65039843919897
 30
0.0
 11
-46.07646029736637
 21
13.65039843919897
 31
0.0
  0
LINE
  5
13A
330
47
100
AcDbEntity
  8
1
  6
Continuous
 62
     6
100
AcDbLine
 10
-151.4764602973663
 20
5.15039843919897
 30
0.0
 11
-196.4316557706163
 21
5.15039843919897
 31
0.0
  0
LINE
  5
13B
330
47
100
AcDbEntity
  8
1
  6
Continuous
 62
     7
100
AcDbLine
 10
38.14993594770621
 20
30.65039843919897
 30
0.0
 11
38.14993594770621
 21
22.15039843919897
 31
0.0
  0
LINE
  5
13C
330
47
100
AcDbEntity
  8
1
  6
Continuous
 62
     7
100
AcDbLine
 10
11.64993594770661
 20
30.65039843919897
 30
0.0
 11
11.64993594770661
 21
22.15039843919897
 31
0.0
  0
LINE
  5
13D
330
47
100
AcDbEntity
  8
1
  6
Continuous
 62
     7
100
AcDbLine
 10
-46.07646029736637
 20
22.15039843919897
 30
0.0
 11
-46.07646029736637
 21
30.65039843919897
 31
0.0
  0
LINE
  5
13E
330
47
100
AcDbEntity
  8
1
  6
Continuous
 62
     7
100
AcDbLine
 10
-82.47646029736629
 20
22.15039843919897
 30
0.0
 11
-82.47646029736629
 21
30.65039843919897
 31
0.0
  0
LINE
  5
13F
330
47
100
AcDbEntity
  8
1
  6
Continuous
 62
     6
100
AcDbLine
 10
-46.07646029736637
 20
22.15039843919897
 30
0.0
 11
47.06834422938542
 21
22.15039843919897
 31
0.0
  0
LINE
  5
140
330
47
100
AcDbEntity
  8
1
  6
Continuous
 62
     7
100
AcDbLine
 10
-18.17646029736628
 20
13.65039843919888
 30
0.0
 11
-18.17646029736628
 21
22.15039843919897
 31
0.0
  0
LINE
  5
141
330
47
100
AcDbEntity
  8
1
  6
PHANTOM
 62
     2
100
AcDbLine
 10
-66.98980541080368
 20
26.27539843919888
 30
0.0
 11
-72.48980541080368
 21
26.27539843919888
 31
0.0
  0
LINE
  5
142
330
47
100
AcDbEntity
  8
1
  6
PHANTOM
 62
     2
100
AcDbLine
 10
-69.73980541080368
 20
29.02539843919888
 30
0.0
 11
-69.73980541080368
 21
23.52539843919888
 31
0.0
  0
LINE
  5
143
330
47
100
AcDbEntity
  8
1
  6
DOT_CENTER
 62
     2
100
AcDbLine
 10
-78.48980541080368
 20
26.27539843919888
 30
0.0
 11
-72.98980541080368
 21
26.27539843919888
 31
0.0
  0
ARC
  5
144
102
{ACAD_REACTORS
330
1BD
330
1BE
102
}
330
47
100
AcDbEntity
  8
0
  6
Continuous
 62
     2
100
AcDbCircle
 10
-70.10495927271668
 20
10.65812225586467
 30
0.0
 40
4.852596863498064
100
AcDbArc
 50
74.02000874164737
 51
84.84185523037506
  0
ARC
  5
145
102
{ACAD_REACTORS
330
1BD
330
1BE
102
}
330
47
100
AcDbEntity
  8
0
  6
Continuous
 62
     2
100
AcDbCircle
 10
-69.52891866396297
 20
13.81388261174897
 30
0.0
 40
0.9059297849853228
100
AcDbArc
 50
71.55192388185348
 51
113.372277888129
  0
ARC
  5
146
102
{ACAD_REACTORS
330
1BD
330
1BE
102
}
330
47
100
AcDbEntity
  8
0
  6
Continuous
 62
     2
100
AcDbCircle
 10
-69.68535869666499
 20
13.76573177178207
 30
0.0
 40
0.5115800601948034
100
AcDbArc
 50
208.5214732576956
 51
246.6277221118272
  0
ARC
  5
147
102
{ACAD_REACTORS
330
1BD
330
1BE
102
}
330
47
100
AcDbEntity
  8
0
  6
Continuous
 62
     2
100
AcDbCircle
 10
-69.52891866396297
 20
14.12772379049207
 30
0.0
 40
0.905929784984916
100
AcDbArc
 50
246.6277221118709
 51
288.4480761181586
  0
ARC
  5
148
102
{ACAD_REACTORS
330
1BD
330
1BE
102
}
330
47
100
AcDbEntity
  8
0
  6
Continuous
 62
     2
100
AcDbCircle
 10
-69.94708639762376
 20
15.38126956652926
 30
0.0
 40
2.227384008972739
100
AcDbArc
 50
288.4480761181328
 51
301.9309089499592
  0
ARC
  5
149
102
{ACAD_REACTORS
330
1B9
330
1BA
102
}
330
47
100
AcDbEntity
  8
0
  6
Continuous
 62
     2
100
AcDbCircle
 10
-75.17216013023057
 20
16.11377159544327
 30
0.0
 40
0.911848150144459
100
AcDbArc
 50
295.3740086781764
 51
64.62599132180728
  0
ARC
  5
14A
102
{ACAD_REACTORS
330
1B9
330
1BA
102
}
330
47
100
AcDbEntity
  8
0
  6
Continuous
 62
     2
100
AcDbCircle
 10
-74.64611743214269
 20
17.82844848391787
 30
0.0
 40
0.3157169230760711
100
AcDbArc
 50
90.18896704254594
 51
180.0
  0
ARC
  5
14B
102
{ACAD_REACTORS
330
1BB
330
1BC
102
}
330
47
100
AcDbEntity
  8
0
  6
Continuous
 62
     2
100
AcDbCircle
 10
-53.43598721930837
 20
13.75791965007667
 30
0.0
 40
0.9545230068261006
100
AcDbArc
 50
90.0
 51
109.3371432194318
  0
ARC
  5
14C
102
{ACAD_REACTORS
330
1BB
330
1BC
102
}
330
47
100
AcDbEntity
  8
0
  6
Continuous
 62
     2
100
AcDbCircle
 10
-53.20529995933069
 20
13.97080320112056
 30
0.0
 40
0.9410597353348844
100
AcDbArc
 50
151.4785267423624
 51
208.5214732576697
  0
ARC
  5
14D
102
{ACAD_REACTORS
330
1BB
330
1BC
102
}
330
47
100
AcDbEntity
  8
0
  6
Continuous
 62
     2
100
AcDbCircle
 10
-53.42621718470898
 20
14.12772379049207
 30
0.0
 40
0.905929784985274
100
AcDbArc
 50
246.6277221118186
 51
288.4480761180818
  0
ARC
  5
14E
102
{ACAD_REACTORS
330
1BB
330
1BC
102
}
330
47
100
AcDbEntity
  8
0
  6
Continuous
 62
     2
100
AcDbCircle
 10
-53.84438491837088
 20
15.38126956652866
 30
0.0
 40
2.227384008972744
100
AcDbArc
 50
288.4480761181333
 51
301.9309089499399
  0
ARC
  5
14F
102
{ACAD_REACTORS
330
1BB
330
1BC
102
}
330
47
100
AcDbEntity
  8
0
  6
Continuous
 62
     2
100
AcDbCircle
 10
-54.00225779346368
 20
17.28348414637696
 30
0.0
 40
4.852596863498824
100
AcDbArc
 50
275.1581447696362
 51
285.9799912583387
  0
ARC
  5
150
102
{ACAD_REACTORS
330
1BB
330
1BC
102
}
330
47
100
AcDbEntity
  8
0
  6
Continuous
 62
     2
100
AcDbCircle
 10
-53.71340169872786
 20
14.08359356315538
 30
0.0
 40
1.639695123940456
100
AcDbArc
 50
195.0618917771012
 51
275.158144769676
  0
ARC
  5
151
102
{ACAD_REACTORS
330
1B3
330
1B4
102
}
330
47
100
AcDbEntity
  8
0
  6
Continuous
 62
     2
100
AcDbCircle
 10
-69.44161501041899
 20
17.80153279786708
 30
0.0
 40
1.055365641333697
100
AcDbArc
 50
270.0
 51
90.0
  0
ARC
  5
152
102
{ACAD_REACTORS
330
1B9
330
1BA
102
}
330
47
100
AcDbEntity
  8
0
  6
Continuous
 62
     2
100
AcDbCircle
 10
-77.22166611867439
 20
13.47217091784887
 30
0.0
 40
0.3157169230756836
100
AcDbArc
 50
180.0
 51
270.0
  0
ARC
  5
153
102
{ACAD_REACTORS
330
1B9
330
1BA
102
}
330
47
100
AcDbEntity
  8
0
  6
Continuous
 62
     2
100
AcDbCircle
 10
-75.74583285766477
 20
17.82862596056597
 30
0.0
 40
0.315716923076593
100
AcDbArc
 50
0.0
 51
90.0
  0
ARC
  5
154
102
{ACAD_REACTORS
330
1B9
330
1BA
102
}
330
47
100
AcDbEntity
  8
0
  6
Continuous
 62
     2
100
AcDbCircle
 10
-75.74583285766477
 20
17.22460134150546
 30
0.0
 40
0.3157169230761203
100
AcDbArc
 50
295.1944106485397
 51
0.0
  0
ARC
  5
155
102
{ACAD_REACTORS
330
1B9
330
1BA
102
}
330
47
100
AcDbEntity
  8
0
  6
Continuous
 62
     2
100
AcDbCircle
 10
-75.74583285766477
 20
13.47217091784887
 30
0.0
 40
0.3157169230767103
100
AcDbArc
 50
270.0
 51
0.0
  0
ARC
  5
156
102
{ACAD_REACTORS
330
1B9
330
1BA
102
}
330
47
100
AcDbEntity
  8
0
  6
Continuous
 62
     2
100
AcDbCircle
 10
-77.81556079542088
 20
18.43265382379877
 30
0.0
 40
0.4242446153837989
100
AcDbArc
 50
90.0
 51
180.0
  0
ARC
  5
157
102
{ACAD_REACTORS
330
1B9
330
1BA
102
}
330
47
100
AcDbEntity
  8
0
  6
Continuous
 62
     2
100
AcDbCircle
 10
-72.34224870470408
 20
18.43265382379877
 30
0.0
 40
0.4242446153838841
100
AcDbArc
 50
0.0
 51
90.0
  0
ARC
  5
158
102
{ACAD_REACTORS
330
1B9
330
1BA
102
}
330
47
100
AcDbEntity
  8
0
  6
Continuous
 62
     2
100
AcDbCircle
 10
-72.34224870470408
 20
12.86814305459856
 30
0.0
 40
0.4242446153832802
100
AcDbArc
 50
270.0
 51
0.0
  0
ARC
  5
159
102
{ACAD_REACTORS
330
1B7
330
1B8
102
}
330
47
100
AcDbEntity
  8
0
  6
Continuous
 62
     2
100
AcDbCircle
 10
-63.12386481761257
 20
17.32999367729488
 30
0.0
 40
0.7717997786796351
100
AcDbArc
 50
321.879580202844
 51
38.12041979715956
  0
ARC
  5
15A
102
{ACAD_REACTORS
330
1B7
330
1B8
102
}
330
47
100
AcDbEntity
  8
0
  6
Continuous
 62
     2
100
AcDbCircle
 10
-62.92412478126639
 20
17.17326249917446
 30
0.0
 40
0.5179085730134315
100
AcDbArc
 50
218.1204197971516
 51
321.8795802028571
  0
ARC
  5
15B
102
{ACAD_REACTORS
330
1B5
330
1B6
102
}
330
47
100
AcDbEntity
  8
0
  6
Continuous
 62
     2
100
AcDbCircle
 10
-66.60413237022658
 20
13.97080320112056
 30
0.0
 40
1.458034083652004
100
AcDbArc
 50
297.548148175701
 51
62.45185182429896
  0
ARC
  5
15C
102
{ACAD_REACTORS
330
1B5
330
1B6
102
}
330
47
100
AcDbEntity
  8
0
  6
Continuous
 62
     2
100
AcDbCircle
 10
-67.16601215389318
 20
13.97080320112056
 30
0.0
 40
1.45803408365149
100
AcDbArc
 50
117.5481481756624
 51
242.4518518243376
  0
ARC
  5
15D
102
{ACAD_REACTORS
330
1B5
330
1B6
102
}
330
47
100
AcDbEntity
  8
0
  6
Continuous
 62
     2
100
AcDbCircle
 10
-66.88507226205988
 20
13.43222819081777
 30
0.0
 40
2.065479772208564
100
AcDbArc
 50
62.45185182430632
 51
117.5481481756664
  0
ARC
  5
15E
102
{ACAD_REACTORS
330
1B5
330
1B6
102
}
330
47
100
AcDbEntity
  8
0
  6
Continuous
 62
     2
100
AcDbCircle
 10
-66.88507226205988
 20
14.50937821142387
 30
0.0
 40
2.065479772208515
100
AcDbArc
 50
242.4518518243403
 51
297.548148175687
  0
ARC
  5
15F
102
{ACAD_REACTORS
330
1B7
330
1B8
102
}
330
47
100
AcDbEntity
  8
0
  6
Continuous
 62
     2
100
AcDbCircle
 10
-62.72438474492009
 20
17.32999367729488
 30
0.0
 40
0.7717997786796724
100
AcDbArc
 50
141.8795802028404
 51
218.120419797156
  0
ARC
  5
160
102
{ACAD_REACTORS
330
1B7
330
1B8
102
}
330
47
100
AcDbEntity
  8
0
  6
Continuous
 62
     2
100
AcDbCircle
 10
-62.92412478126639
 20
17.48672485541536
 30
0.0
 40
0.5179085730135321
100
AcDbArc
 50
38.12041979714286
 51
141.8795802028484
  0
ARC
  5
161
102
{ACAD_REACTORS
330
1B9
330
1BA
102
}
330
47
100
AcDbEntity
  8
0
  6
Continuous
 62
     2
100
AcDbCircle
 10
-77.81556079542088
 20
12.86814305459856
 30
0.0
 40
0.4242446153828041
100
AcDbArc
 50
180.0
 51
270.0
  0
ARC
  5
162
102
{ACAD_REACTORS
330
1B9
330
1BA
102
}
330
47
100
AcDbEntity
  8
0
  6
Continuous
 62
     2
100
AcDbCircle
 10
-75.74583285766477
 20
15.00294184938048
 30
0.0
 40
0.315716923076593
100
AcDbArc
 50
0.0
 51
64.80558935146027
  0
ARC
  5
163
102
{ACAD_REACTORS
330
1B9
330
1BA
102
}
330
47
100
AcDbEntity
  8
0
  6
Continuous
 62
     2
100
AcDbCircle
 10
-75.22324841008978
 20
16.11377159544327
 30
0.0
 40
0.9118975235576082
100
AcDbArc
 50
115.1944106485284
 51
244.8055893514878
  0
ARC
  5
164
102
{ACAD_REACTORS
330
1B9
330
1BA
102
}
330
47
100
AcDbEntity
  8
0
  6
Continuous
 62
     2
100
AcDbCircle
 10
-77.22166611867439
 20
17.82862596056597
 30
0.0
 40
0.3157169230762022
100
AcDbArc
 50
90.0
 51
180.0
  0
ARC
  5
165
102
{ACAD_REACTORS
330
1B3
330
1B4
102
}
330
47
100
AcDbEntity
  8
0
  6
Continuous
 62
     2
100
AcDbCircle
 10
-69.88308753665737
 20
17.84092876908957
 30
0.0
 40
0.3528638246711182
100
AcDbArc
 50
270.0
 51
90.0
  0
ARC
  5
166
102
{ACAD_REACTORS
330
1B7
330
1B8
102
}
330
47
100
AcDbEntity
  8
0
  6
Continuous
 62
     2
100
AcDbCircle
 10
-63.14039679143158
 20
17.32999367729488
 30
0.0
 40
1.526904761905879
100
AcDbArc
 50
90.0
 51
270.0
  0
ARC
  5
167
102
{ACAD_REACTORS
330
1BB
330
1BC
102
}
330
47
100
AcDbEntity
  8
0
  6
Continuous
 62
     2
100
AcDbCircle
 10
-53.71340169872786
 20
13.85801283908566
 30
0.0
 40
1.639695123940211
100
AcDbArc
 50
90.0
 51
164.9381082228951
  0
ARC
  5
168
102
{ACAD_REACTORS
330
1BB
330
1BC
102
}
330
47
100
AcDbEntity
  8
0
  6
Continuous
 62
     2
100
AcDbCircle
 10
-54.13252954218947
 20
13.97080320112056
 30
0.0
 40
1.205656168393009
100
AcDbArc
 50
164.938108222903
 51
195.0618917770957
  0
ARC
  5
169
102
{ACAD_REACTORS
330
1BB
330
1BC
102
}
330
47
100
AcDbEntity
  8
0
  6
Continuous
 62
     2
100
AcDbCircle
 10
-53.58265721741208
 20
13.76573177178207
 30
0.0
 40
0.5115800601960145
100
AcDbArc
 50
208.5214732576868
 51
246.6277221118447
  0
ARC
  5
16A
102
{ACAD_REACTORS
330
1BB
330
1BC
102
}
330
47
100
AcDbEntity
  8
0
  6
Continuous
 62
     2
100
AcDbCircle
 10
-53.58265721741208
 20
14.17587463045956
 30
0.0
 40
0.5115800601944194
100
AcDbArc
 50
109.3371432194851
 51
151.4785267424224
  0
ARC
  5
16B
102
{ACAD_REACTORS
330
1B9
330
1BA
102
}
330
47
100
AcDbEntity
  8
0
  6
Continuous
 62
     2
100
AcDbCircle
 10
-74.64611743214269
 20
14.42277858877978
 30
0.0
 40
0.315716923076792
100
AcDbArc
 50
180.0
 51
269.8110329574542
  0
ARC
  5
16C
102
{ACAD_REACTORS
330
1B9
330
1BA
102
}
330
47
100
AcDbEntity
  8
0
  6
Continuous
 62
     2
100
AcDbCircle
 10
-74.64050129683267
 20
16.12561353634877
 30
0.0
 40
2.018561131933266
100
AcDbArc
 50
269.8110329575858
 51
90.18896704241416
  0
ARC
  5
16D
102
{ACAD_REACTORS
330
1B9
330
1BA
102
}
330
47
100
AcDbEntity
  8
0
  6
Continuous
 62
     2
100
AcDbCircle
 10
-74.64611743214269
 20
17.22291319541108
 30
0.0
 40
0.315716923076792
100
AcDbArc
 50
180.0
 51
244.6259913216484
  0
ARC
  5
16E
102
{ACAD_REACTORS
330
1B9
330
1BA
102
}
330
47
100
AcDbEntity
  8
0
  6
Continuous
 62
     2
100
AcDbCircle
 10
-74.64611743214269
 20
15.00462999547486
 30
0.0
 40
0.3157169230765344
100
AcDbArc
 50
115.3740086783517
 51
180.0
  0
ARC
  5
16F
102
{ACAD_REACTORS
330
1BD
330
1BE
102
}
330
47
100
AcDbEntity
  8
0
  6
Continuous
 62
     2
100
AcDbCircle
 10
-69.81610317798078
 20
13.85801283908566
 30
0.0
 40
1.639695123940505
100
AcDbArc
 50
84.84185523036236
 51
164.9381082228865
  0
ARC
  5
170
102
{ACAD_REACTORS
330
1BD
330
1BE
102
}
330
47
100
AcDbEntity
  8
0
  6
Continuous
 62
     2
100
AcDbCircle
 10
-70.23523102144358
 20
13.97080320112056
 30
0.0
 40
1.205656168390943
100
AcDbArc
 50
164.9381082228765
 51
195.061891777095
  0
ARC
  5
171
102
{ACAD_REACTORS
330
1BD
330
1BE
102
}
330
47
100
AcDbEntity
  8
0
  6
Continuous
 62
     2
100
AcDbCircle
 10
-69.81610317798078
 20
14.08359356315538
 30
0.0
 40
1.63969512393939
100
AcDbArc
 50
195.0618917770899
 51
275.1581447696395
  0
ARC
  5
172
102
{ACAD_REACTORS
330
1BD
330
1BE
102
}
330
47
100
AcDbEntity
  8
0
  6
Continuous
 62
     2
100
AcDbCircle
 10
-70.10495927271668
 20
17.28348414637696
 30
0.0
 40
4.852596863498134
100
AcDbArc
 50
275.1581447696249
 51
285.9799912583529
  0
ARC
  5
173
102
{ACAD_REACTORS
330
1BD
330
1BE
102
}
330
47
100
AcDbEntity
  8
0
  6
Continuous
 62
     2
100
AcDbCircle
 10
-69.30800143858468
 20
13.97080320112056
 30
0.0
 40
0.9410597353332545
100
AcDbArc
 50
151.4785267422669
 51
208.5214732577058
  0
ARC
  5
174
102
{ACAD_REACTORS
330
1BD
330
1BE
102
}
330
47
100
AcDbEntity
  8
0
  6
Continuous
 62
     2
100
AcDbCircle
 10
-69.68535869666499
 20
14.17587463045956
 30
0.0
 40
0.5115800601948796
100
AcDbArc
 50
113.3722778881991
 51
151.4785267423044
  0
ARC
  5
175
102
{ACAD_REACTORS
330
1BD
330
1BE
102
}
330
47
100
AcDbEntity
  8
0
  6
Continuous
 62
     2
100
AcDbCircle
 10
-69.94708639762376
 20
12.56033683571238
 30
0.0
 40
2.227384008973474
100
AcDbArc
 50
58.06909105004068
 51
71.55192388186722
  0
ARC
  5
176
102
{ACAD_REACTORS
330
1B5
330
1B6
102
}
330
47
100
AcDbEntity
  8
0
  6
Continuous
 62
     2
100
AcDbCircle
 10
-66.88507226205988
 20
14.12753437924107
 30
0.0
 40
0.5179085730132965
100
AcDbArc
 50
38.12041979714657
 51
141.8795802028592
  0
ARC
  5
177
102
{ACAD_REACTORS
330
1B5
330
1B6
102
}
330
47
100
AcDbEntity
  8
0
  6
Continuous
 62
     2
100
AcDbCircle
 10
-66.68533222571378
 20
13.97080320112056
 30
0.0
 40
0.7717997786794599
100
AcDbArc
 50
141.8795802028366
 51
218.1204197971687
  0
ARC
  5
178
102
{ACAD_REACTORS
330
1B5
330
1B6
102
}
330
47
100
AcDbEntity
  8
0
  6
Continuous
 62
     2
100
AcDbCircle
 10
-66.88507226205988
 20
13.81407202300056
 30
0.0
 40
0.5179085730137332
100
AcDbArc
 50
218.1204197971929
 51
321.8795802028013
  0
ARC
  5
179
102
{ACAD_REACTORS
330
1B5
330
1B6
102
}
330
47
100
AcDbEntity
  8
0
  6
Continuous
 62
     2
100
AcDbCircle
 10
-67.08481229840629
 20
13.97080320112056
 30
0.0
 40
0.7717997786796947
100
AcDbArc
 50
321.8795802028417
 51
38.12041979715298
  0
CIRCLE
  5
17A
330
47
100
AcDbEntity
  8
1
  6
Continuous
 62
     2
100
AcDbCircle
 10
-69.73980541080368
 20
26.27539843919888
 30
0.0
 40
2.5
  0
CIRCLE
  5
17B
330
47
100
AcDbEntity
  8
1
  6
Continuous
 62
     2
100
AcDbCircle
 10
-69.73980541080368
 20
26.27539843919888
 30
0.0
 40
1.249999999999915
  0
CIRCLE
  5
17C
102
{ACAD_REACTORS
330
1B9
330
1BA
102
}
330
47
100
AcDbEntity
  8
0
  6
Continuous
 62
     2
100
AcDbCircle
 10
-75.19597514490337
 20
16.11377159544327
 30
0.0
 40
0.4709789327785074
  0
MTEXT
  5
17E
330
47
100
AcDbEntity
  8
1
 62
     3
100
AcDbMText
 10
-239.9265879845445
 20
191.9417065944978
 30
0.0
 40
1.8
 41
0.0
 71
     7
 72
     1
  3
Weitergabe sowie Vervielf\U+00e4ltigung dieses Dokuments, Verwertung und \PMitteilung seines Inhalts sind verboten, soweit nicht ausdr\U+00fccklich gestattet. \PZuwiderhandlungen verpflichten zu Schadenersatz. Alle Rechte f\U+00fcr den Fall\Pder Pat
  1
ent-, Gebrauchsmuster- oder Designeintragung vorbehalten.
  7
CONVERTER_11
 73
     1
 44
0.99639855942377
  0
MTEXT
  5
17F
330
47
100
AcDbEntity
  8
1
 62
     3
100
AcDbMText
 10
-57.07347814575638
 20
191.9417065944978
 30
0.0
 40
1.8
 41
0.0
 71
     7
 72
     1
  3
Transfer or duplication of this document as well as the utilisation or\Pcommunication of its content are not permitted unless express consent\Pis granted. Violations give rise to claims for damages. All rights reserved\Pin case of patent, utility mo
  1
del or design patent registrations.
  7
CONVERTER_11
 73
     1
 44
0.99639855942377
  0
TEXT
  5
180
330
47
100
AcDbEntity
  8
1
 62
     2
100
AcDbText
 10
-63.27646029736647
 20
6.39138122420735
 30
0.0
 40
1.8
  1
of
 41
0.9
  7
CONVERTER_11
100
AcDbText
  0
TEXT
  5
181
330
47
100
AcDbEntity
  8
1
 62
     2
100
AcDbText
 10
-81.47646029736629
 20
6.39138122420729
 30
0.0
 40
1.8
  1
page
 41
0.9
  7
CONVERTER_11
100
AcDbText
  0
TEXT
  5
182
330
47
100
AcDbEntity
  8
1
 62
     2
100
AcDbText
 10
-72.83019532702428
 20
6.35114978539696
 30
0.0
 40
1.8
  1
1
 41
0.9
  7
CONVERTER_11
100
AcDbText
  0
TEXT
  5
183
330
47
100
AcDbEntity
  8
1
 62
     2
100
AcDbText
 10
-58.04115148755278
 20
6.40039843919885
 30
0.0
 40
1.8
  1
1
 41
0.9
  7
CONVERTER_11
100
AcDbText
  0
MTEXT
  5
185
330
47
100
AcDbEntity
  8
1
 62
     7
100
AcDbMText
 10
0.49594196600921
 20
8.40039843919919
 30
0.0
 40
3.0
 41
0.0
 71
     5
 72
     1
  1
ESB 2-MZDB
  7
CONVERTER_12
 73
     1
 44
1.20048019207683
  0
MTEXT
  5
186
330
47
100
AcDbEntity
  8
1
 62
     2
100
AcDbMText
 10
-45.07646029736637
 20
12.65039843919897
 30
0.0
 40
1.8
 41
0.0
 71
     1
 72
     1
  1
description
  7
CONVERTER_11
 73
     1
 44
1.20048019207683
  0
MTEXT
  5
187
330
47
100
AcDbEntity
  8
1
 62
     3
100
AcDbMText
 10
-56.27646029736638
 20
26.27539843919897
 30
0.0
 40
2.5
 41
0.0
 71
     5
 72
     1
  1
DIN A4
  7
CONVERTER_11
 73
     1
 44
1.20048019207683
  0
MTEXT
  5
188
330
47
100
AcDbEntity
  8
1
 62
     7
100
AcDbMText
 10
-242.4316557706154
 20
27.65039843919897
 30
0.0
 40
3.5
 41
0.0
 71
     5
 72
     1
  1
D
  7
CONVERTER_11
 73
     1
 44
1.20048019207683
  0
MTEXT
  5
189
330
47
100
AcDbEntity
  8
1
 62
     7
100
AcDbMText
 10
-242.4316557706154
 20
80.15039843919897
 30
0.0
 40
3.5
 41
0.0
 71
     5
 72
     1
  1
C
  7
CONVERTER_11
 73
     1
 44
1.20048019207683
  0
MTEXT
  5
18A
330
47
100
AcDbEntity
  8
1
 62
     7
100
AcDbMText
 10
-242.4316557706154
 20
130.150398439199
 30
0.0
 40
3.5
 41
0.0
 71
     5
 72
     1
  1
B
  7
CONVERTER_11
 73
     1
 44
1.20048019207683
  0
MTEXT
  5
18B
330
47
100
AcDbEntity
  8
1
 62
     7
100
AcDbMText
 10
-242.4316557706154
 20
182.650398439199
 30
0.0
 40
3.5
 41
0.0
 71
     5
 72
     1
  1
A
  7
CONVERTER_11
 73
     1
 44
1.20048019207683
  0
MTEXT
  5
18C
330
47
100
AcDbEntity
  8
1
 62
     7
100
AcDbMText
 10
27.81834422938292
 20
2.65039843919885
 30
0.0
 40
3.5
 41
0.0
 71
     5
 72
     1
  1
6
  7
CONVERTER_11
 73
     1
 44
1.20048019207683
  0
MTEXT
  5
18D
330
47
100
AcDbEntity
  8
1
 62
     7
100
AcDbMText
 10
-21.43165577061629
 20
2.65039843919885
 30
0.0
 40
3.5
 41
0.0
 71
     5
 72
     1
  1
5
  7
CONVERTER_11
 73
     1
 44
1.20048019207683
  0
MTEXT
  5
18E
330
47
100
AcDbEntity
  8
1
 62
     7
100
AcDbMText
 10
-71.43165577061637
 20
2.65039843919885
 30
0.0
 40
3.5
 41
0.0
 71
     5
 72
     1
  1
4
  7
CONVERTER_11
 73
     1
 44
1.20048019207683
  0
MTEXT
  5
18F
330
47
100
AcDbEntity
  8
1
 62
     7
100
AcDbMText
 10
-121.4316557706163
 20
2.65039843919885
 30
0.0
 40
3.5
 41
0.0
 71
     5
 72
     1
  1
3
  7
CONVERTER_11
 73
     1
 44
1.20048019207683
  0
MTEXT
  5
190
330
47
100
AcDbEntity
  8
1
 62
     7
100
AcDbMText
 10
-171.4316557706163
 20
2.65039843919885
 30
0.0
 40
3.5
 41
0.0
 71
     5
 72
     1
  1
2
  7
CONVERTER_11
 73
     1
 44
1.20048019207683
  0
MTEXT
  5
191
330
47
100
AcDbEntity
  8
1
 62
     7
100
AcDbMText
 10
-220.6816557706159
 20
2.65039843919885
 30
0.0
 40
3.5
 41
0.0
 71
     5
 72
     1
  1
1
  7
CONVERTER_11
 73
     1
 44
1.20048019207683
  0
MTEXT
  5
192
330
47
100
AcDbEntity
  8
1
 62
     7
100
AcDbMText
 10
49.56834422938272
 20
27.65039843919897
 30
0.0
 40
3.5
 41
0.0
 71
     5
 72
     1
  1
D
  7
CONVERTER_11
 73
     1
 44
1.20048019207683
  0
MTEXT
  5
193
330
47
100
AcDbEntity
  8
1
 62
     7
100
AcDbMText
 10
49.56834422938272
 20
130.1503984392009
 30
0.0
 40
3.5
 41
0.0
 71
     5
 72
     1
  1
B
  7
CONVERTER_11
 73
     1
 44
1.20048019207683
  0
MTEXT
  5
194
330
47
100
AcDbEntity
  8
1
 62
     7
100
AcDbMText
 10
49.56834422938272
 20
182.650398439199
 30
0.0
 40
3.5
 41
0.0
 71
     5
 72
     1
  1
A
  7
CONVERTER_11
 73
     1
 44
1.20048019207683
  0
MTEXT
  5
195
330
47
100
AcDbEntity
  8
1
 62
     7
100
AcDbMText
 10
49.56834422938272
 20
80.15039843920087
 30
0.0
 40
3.5
 41
0.0
 71
     5
 72
     1
  1
C
  7
CONVERTER_11
 73
     1
 44
1.20048019207683
  0
MTEXT
  5
196
330
47
100
AcDbEntity
  8
1
 62
     2
100
AcDbMText
 10
-116.9144750224138
 20
17.90039843919888
 30
0.0
 40
2.0
 41
0.0
 71
     5
 72
     1
  1
General Information\P- Simplified representation\P- Document excluded from change process\P- Linear dimensions [mm]
  7
CONVERTER_11
 73
     1
 44
1.20048019207683
  0
TEXT
  5
197
330
47
100
AcDbEntity
  8
1
 62
     7
100
AcDbText
 10
-44.57646029736657
 20
14.95039843919886
 30
0.0
 40
2.5
  1
3029703
 41
0.81
  7
CONVERTER_12
100
AcDbText
  0
MTEXT
  5
198
330
47
100
AcDbEntity
  8
1
 62
     2
100
AcDbMText
 10
-44.97646029736629
 20
21.15039843919897
 30
0.0
 40
1.8
 41
0.0
 71
     1
 72
     1
  1
ident.-No.
  7
CONVERTER_11
 73
     1
 44
1.20048019207683
  0
MTEXT
  5
199
330
47
100
AcDbEntity
  8
1
 62
     2
100
AcDbMText
 10
39.24993594770643
 20
29.65039843919897
 30
0.0
 40
1.8
 41
0.0
 71
     1
 72
     1
  1
scale
  7
CONVERTER_11
 73
     1
 44
1.20048019207683
  0
MTEXT
  5
19B
330
47
100
AcDbEntity
  8
1
 62
     3
100
AcDbMText
 10
42.60914008854603
 20
23.45039843919906
 30
0.0
 40
2.5
 41
0.0
 71
     8
 72
     1
  1
2:1
  7
CONVERTER_13
 73
     1
 44
1.32052821128451
  0
TEXT
  5
19C
330
47
100
AcDbEntity
  8
1
 62
     7
100
AcDbText
 10
-44.97646029736629
 20
23.45039843919886
 30
0.0
 40
2.5
  1
00529263
 41
0.81
  7
CONVERTER_12
100
AcDbText
  0
MTEXT
  5
19E
330
47
100
AcDbEntity
  8
1
 62
     2
100
AcDbMText
 10
-44.97646029736629
 20
29.65039843919897
 30
0.0
 40
1.8
 41
0.0
 71
     1
 72
     1
  1
document-No. / RI
  7
CONVERTER_14
 73
     1
 44
1.32052821128451
  0
TEXT
  5
19F
330
47
100
AcDbEntity
  8
1
 62
     3
100
AcDbText
 10
-17.17646029736628
 20
14.95039843919886
 30
0.0
 40
2.5
  1
TECDOC 2D_Productdrawing
 41
0.81
  7
CONVERTER_12
100
AcDbText
  0
MTEXT
  5
1A0
330
47
100
AcDbEntity
  8
1
 62
     2
100
AcDbMText
 10
-17.17646029736628
 20
21.15039843919888
 30
0.0
 40
1.8
 41
0.0
 71
     1
 72
     1
  1
document-type
  7
CONVERTER_11
 73
     1
 44
1.20048019207683
  0
MTEXT
  5
1A1
330
47
100
AcDbEntity
  8
1
 62
     2
100
AcDbMText
 10
12.64993594770661
 20
29.65039843919888
 30
0.0
 40
1.8
 41
0.0
 71
     1
 72
     1
  1
date
  7
CONVERTER_11
 73
     1
 44
1.32052821128451
  0
TEXT
  5
1A2
330
47
100
AcDbEntity
  8
1
 62
     3
100
AcDbText
 10
12.64993594770661
 20
23.45039843919886
 30
0.0
 40
2.5
  1
18.01.2018
 41
0.81
  7
CONVERTER_12
100
AcDbText
  0
TEXT
  5
1A3
330
47
100
AcDbEntity
  8
1
 62
     7
100
AcDbText
 10
-24.94654807831049
 20
23.45039843919886
 30
0.0
 40
2.5
  1
01
 41
0.81
  7
CONVERTER_12
100
AcDbText
  0
TEXT
  5
1A4
330
47
100
AcDbEntity
  8
1
 62
     7
100
AcDbText
 10
-27.10291257535249
 20
23.45039843919886
 30
0.0
 40
2.5
  1
/
 41
0.9
  7
CONVERTER_11
100
AcDbText
  0
HATCH
  5
1A5
330
47
100
AcDbEntity
  8
1
  6
Continuous
 62
     2
100
AcDbHatch
 10
0.0
 20
0.0
 30
0.0
210
0.0
220
0.0
230
1.0
  2
_USER
 70
     0
 71
     1
 91
        1
 92
        1
 93
       12
 72
     1
 10
-64.80895958440519
 20
15.80308891538957
 11
-66.00175228657159
 21
15.80308891538957
 72
     1
 10
-66.00175228657159
 20
15.80308891538957
 11
-66.00175228657159
 21
16.93736102423338
 72
     1
 10
-66.00175228657159
 20
16.93736102423338
 11
-67.05140986447907
 21
16.93736102423338
 72
     1
 10
-67.05140986447907
 20
16.93736102423338
 11
-67.05140986447907
 21
15.80308891538957
 72
     1
 10
-67.05140986447907
 20
15.80308891538957
 11
-68.24420256664567
 21
15.80308891538957
 72
     1
 10
-68.24420256664567
 20
15.80308891538957
 11
-68.24420256664567
 21
18.85689843920076
 72
     1
 10
-68.24420256664567
 20
18.85689843920076
 11
-67.05140986447907
 21
18.85689843920076
 72
     1
 10
-67.05140986447907
 20
18.85689843920076
 11
-67.05140986447907
 21
17.78806510586617
 72
     1
 10
-67.05140986447907
 20
17.78806510586617
 11
-66.00175228657159
 21
17.78806510586617
 72
     1
 10
-66.00175228657159
 20
17.78806510586617
 11
-66.00175228657159
 21
18.85689843920076
 72
     1
 10
-66.00175228657159
 20
18.85689843920076
 11
-64.80895958440519
 21
18.85689843920076
 72
     1
 10
-64.80895958440519
 20
18.85689843920076
 11
-64.80895958440519
 21
15.80308891538957
 97
       12
330
111
330
112
330
FC
330
FB
330
FA
330
10E
330
F9
330
10F
330
110
330
F8
330
F7
330
F6
 75
     1
 76
     0
 52
45.0
 41
0.1
 77
     0
 78
     1
 53
45.0
 43
0.0
 44
0.0
 45
-0.0707106781186548
 46
0.0707106781186548
 79
     0
 98
        1
 10
0.0
 20
0.0
  0
HATCH
  5
1A6
330
47
100
AcDbEntity
  8
1
  6
Continuous
 62
     2
100
AcDbHatch
 10
0.0
 20
0.0
 30
0.0
210
0.0
220
0.0
230
1.0
  2
_USER
 70
     0
 71
     1
 91
        1
 92
        1
 93
       12
 72
     1
 10
-64.80895958440519
 20
15.80308891538957
 11
-66.00175228657159
 21
15.80308891538957
 72
     1
 10
-66.00175228657159
 20
15.80308891538957
 11
-66.00175228657159
 21
16.93736102423338
 72
     1
 10
-66.00175228657159
 20
16.93736102423338
 11
-67.05140986447907
 21
16.93736102423338
 72
     1
 10
-67.05140986447907
 20
16.93736102423338
 11
-67.05140986447907
 21
15.80308891538957
 72
     1
 10
-67.05140986447907
 20
15.80308891538957
 11
-68.24420256664567
 21
15.80308891538957
 72
     1
 10
-68.24420256664567
 20
15.80308891538957
 11
-68.24420256664567
 21
18.85689843920076
 72
     1
 10
-68.24420256664567
 20
18.85689843920076
 11
-67.05140986447907
 21
18.85689843920076
 72
     1
 10
-67.05140986447907
 20
18.85689843920076
 11
-67.05140986447907
 21
17.78806510586617
 72
     1
 10
-67.05140986447907
 20
17.78806510586617
 11
-66.00175228657159
 21
17.78806510586617
 72
     1
 10
-66.00175228657159
 20
17.78806510586617
 11
-66.00175228657159
 21
18.85689843920076
 72
     1
 10
-66.00175228657159
 20
18.85689843920076
 11
-64.80895958440519
 21
18.85689843920076
 72
     1
 10
-64.80895958440519
 20
18.85689843920076
 11
-64.80895958440519
 21
15.80308891538957
 97
       12
330
111
330
112
330
FC
330
FB
330
FA
330
10E
330
F9
330
10F
330
110
330
F8
330
F7
330
F6
 75
     1
 76
     0
 52
45.0
 41
0.1
 77
     0
 78
     1
 53
45.0
 43
0.0
 44
0.0
 45
-0.0707106781186548
 46
0.0707106781186548
 79
     0
 98
        1
 10
0.0
 20
0.0
  0
HATCH
  5
1A7
330
47
100
AcDbEntity
  8
1
  6
Continuous
 62
     2
100
AcDbHatch
 10
0.0
 20
0.0
 30
0.0
210
0.0
220
0.0
230
1.0
  2
_USER
 70
     0
 71
     1
 91
        1
 92
        1
 93
       10
 72
     1
 10
-62.56666023521689
 20
14.18893245282126
 11
-63.80716464546978
 21
15.49770796302636
 72
     1
 10
-63.80716464546978
 20
15.49770796302636
 11
-64.99995734763738
 21
15.49770796302636
 72
     1
 10
-64.99995734763738
 20
15.49770796302636
 11
-64.99995734763738
 21
12.44389843921528
 72
     1
 10
-64.99995734763738
 20
12.44389843921528
 11
-63.80716464546978
 21
12.44389843921528
 72
     1
 10
-63.80716464546978
 20
12.44389843921528
 11
-63.80716464546978
 21
13.75267394941986
 72
     1
 10
-63.80716464546978
 20
13.75267394941986
 11
-62.56666023521689
 21
12.44389843921528
 72
     1
 10
-62.56666023521689
 20
12.44389843921528
 11
-61.37386753305049
 21
12.44389843921528
 72
     1
 10
-61.37386753305049
 20
12.44389843921528
 11
-61.37386753305049
 21
15.49770796302636
 72
     1
 10
-61.37386753305049
 20
15.49770796302636
 11
-62.56666023521689
 21
15.49770796302636
 72
     1
 10
-62.56666023521689
 20
15.49770796302636
 11
-62.56666023521689
 21
14.18893245282126
 97
       10
330
11F
330
EF
330
EE
330
F1
330
11A
330
11B
330
F0
330
11C
330
11D
330
11E
 75
     1
 76
     0
 52
45.0
 41
0.1
 77
     0
 78
     1
 53
45.0
 43
0.0
 44
0.0
 45
-0.0707106781186548
 46
0.0707106781186548
 79
     0
 98
        1
 10
0.0
 20
0.0
  0
HATCH
  5
1A8
330
47
100
AcDbEntity
  8
1
  6
Continuous
 62
     2
100
AcDbHatch
 10
0.0
 20
0.0
 30
0.0
210
0.0
220
0.0
230
1.0
  2
_USER
 70
     0
 71
     1
 91
        1
 92
        1
 93
       10
 72
     1
 10
-62.56666023521689
 20
14.18893245282126
 11
-63.80716464546978
 21
15.49770796302636
 72
     1
 10
-63.80716464546978
 20
15.49770796302636
 11
-64.99995734763738
 21
15.49770796302636
 72
     1
 10
-64.99995734763738
 20
15.49770796302636
 11
-64.99995734763738
 21
12.44389843921528
 72
     1
 10
-64.99995734763738
 20
12.44389843921528
 11
-63.80716464546978
 21
12.44389843921528
 72
     1
 10
-63.80716464546978
 20
12.44389843921528
 11
-63.80716464546978
 21
13.75267394941986
 72
     1
 10
-63.80716464546978
 20
13.75267394941986
 11
-62.56666023521689
 21
12.44389843921528
 72
     1
 10
-62.56666023521689
 20
12.44389843921528
 11
-61.37386753305049
 21
12.44389843921528
 72
     1
 10
-61.37386753305049
 20
12.44389843921528
 11
-61.37386753305049
 21
15.49770796302636
 72
     1
 10
-61.37386753305049
 20
15.49770796302636
 11
-62.56666023521689
 21
15.49770796302636
 72
     1
 10
-62.56666023521689
 20
15.49770796302636
 11
-62.56666023521689
 21
14.18893245282126
 97
       10
330
11F
330
EF
330
EE
330
F1
330
11A
330
11B
330
F0
330
11C
330
11D
330
11E
 75
     1
 76
     0
 52
45.0
 41
0.1
 77
     0
 78
     1
 53
45.0
 43
0.0
 44
0.0
 45
-0.0707106781186548
 46
0.0707106781186548
 79
     0
 98
        1
 10
0.0
 20
0.0
  0
HATCH
  5
1A9
330
47
100
AcDbEntity
  8
1
  6
Continuous
 62
     2
100
AcDbHatch
 10
0.0
 20
0.0
 30
0.0
210
0.0
220
0.0
230
1.0
  2
_USER
 70
     0
 71
     1
 91
        1
 92
        1
 93
       10
 72
     1
 10
-57.31822141479717
 20
17.54812292899558
 11
-58.55872582505117
 21
18.85689843920076
 72
     1
 10
-58.55872582505117
 20
18.85689843920076
 11
-59.75151852721768
 21
18.85689843920076
 72
     1
 10
-59.75151852721768
 20
18.85689843920076
 11
-59.75151852721768
 21
15.80308891538957
 72
     1
 10
-59.75151852721768
 20
15.80308891538957
 11
-58.55872582505117
 21
15.80308891538957
 72
     1
 10
-58.55872582505117
 20
15.80308891538957
 11
-58.55872582505117
 21
17.11186442559426
 72
     1
 10
-58.55872582505117
 20
17.11186442559426
 11
-57.31822141479717
 21
15.80308891538957
 72
     1
 10
-57.31822141479717
 20
15.80308891538957
 11
-56.12542871263057
 21
15.80308891538957
 72
     1
 10
-56.12542871263057
 20
15.80308891538957
 11
-56.12542871263057
 21
18.85689843920076
 72
     1
 10
-56.12542871263057
 20
18.85689843920076
 11
-57.31822141479717
 21
18.85689843920076
 72
     1
 10
-57.31822141479717
 20
18.85689843920076
 11
-57.31822141479717
 21
17.54812292899558
 97
       10
330
124
330
EC
330
EB
330
125
330
EA
330
120
330
121
330
122
330
123
330
ED
 75
     1
 76
     0
 52
45.0
 41
0.1
 77
     0
 78
     1
 53
45.0
 43
0.0
 44
0.0
 45
-0.0707106781186548
 46
0.0707106781186548
 79
     0
 98
        1
 10
0.0
 20
0.0
  0
HATCH
  5
1AA
330
47
100
AcDbEntity
  8
1
  6
Continuous
 62
     2
100
AcDbHatch
 10
0.0
 20
0.0
 30
0.0
210
0.0
220
0.0
230
1.0
  2
_USER
 70
     0
 71
     1
 91
        1
 92
        1
 93
       10
 72
     1
 10
-57.31822141479717
 20
17.54812292899558
 11
-58.55872582505117
 21
18.85689843920076
 72
     1
 10
-58.55872582505117
 20
18.85689843920076
 11
-59.75151852721768
 21
18.85689843920076
 72
     1
 10
-59.75151852721768
 20
18.85689843920076
 11
-59.75151852721768
 21
15.80308891538957
 72
     1
 10
-59.75151852721768
 20
15.80308891538957
 11
-58.55872582505117
 21
15.80308891538957
 72
     1
 10
-58.55872582505117
 20
15.80308891538957
 11
-58.55872582505117
 21
17.11186442559426
 72
     1
 10
-58.55872582505117
 20
17.11186442559426
 11
-57.31822141479717
 21
15.80308891538957
 72
     1
 10
-57.31822141479717
 20
15.80308891538957
 11
-56.12542871263057
 21
15.80308891538957
 72
     1
 10
-56.12542871263057
 20
15.80308891538957
 11
-56.12542871263057
 21
18.85689843920076
 72
     1
 10
-56.12542871263057
 20
18.85689843920076
 11
-57.31822141479717
 21
18.85689843920076
 72
     1
 10
-57.31822141479717
 20
18.85689843920076
 11
-57.31822141479717
 21
17.54812292899558
 97
       10
330
124
330
EC
330
EB
330
125
330
EA
330
120
330
121
330
122
330
123
330
ED
 75
     1
 76
     0
 52
45.0
 41
0.1
 77
     0
 78
     1
 53
45.0
 43
0.0
 44
0.0
 45
-0.0707106781186548
 46
0.0707106781186548
 79
     0
 98
        1
 10
0.0
 20
0.0
  0
HATCH
  5
1AB
330
47
100
AcDbEntity
  8
1
  6
Continuous
 62
     2
100
AcDbHatch
 10
0.0
 20
0.0
 30
0.0
210
0.0
220
0.0
230
1.0
  2
_USER
 70
     0
 71
     1
 91
        1
 92
        1
 93
        8
 72
     1
 10
-58.41574163167667
 20
15.49770796302636
 11
-61.23073240879029
 21
15.49770796302636
 72
     1
 10
-61.23073240879029
 20
15.49770796302636
 11
-61.23073240879029
 21
14.71244265690277
 72
     1
 10
-61.23073240879029
 20
14.71244265690277
 11
-60.41963337131568
 21
14.71244265690277
 72
     1
 10
-60.41963337131568
 20
14.71244265690277
 11
-60.41963337131568
 21
12.44389843921528
 72
     1
 10
-60.41963337131568
 20
12.44389843921528
 11
-59.22684066914917
 21
12.44389843921528
 72
     1
 10
-59.22684066914917
 20
12.44389843921528
 11
-59.22684066914917
 21
14.71244265690277
 72
     1
 10
-59.22684066914917
 20
14.71244265690277
 11
-58.41574163167667
 21
14.71244265690277
 72
     1
 10
-58.41574163167667
 20
14.71244265690277
 11
-58.41574163167667
 21
15.49770796302636
 97
        8
330
E6
330
126
330
E5
330
127
330
128
330
E9
330
E8
330
E7
 75
     1
 76
     0
 52
45.0
 41
0.1
 77
     0
 78
     1
 53
45.0
 43
0.0
 44
0.0
 45
-0.0707106781186548
 46
0.0707106781186548
 79
     0
 98
        1
 10
0.0
 20
0.0
  0
HATCH
  5
1AC
330
47
100
AcDbEntity
  8
1
  6
Continuous
 62
     2
100
AcDbHatch
 10
0.0
 20
0.0
 30
0.0
210
0.0
220
0.0
230
1.0
  2
_USER
 70
     0
 71
     1
 91
        1
 92
        1
 93
        8
 72
     1
 10
-58.41574163167667
 20
15.49770796302636
 11
-61.23073240879029
 21
15.49770796302636
 72
     1
 10
-61.23073240879029
 20
15.49770796302636
 11
-61.23073240879029
 21
14.71244265690277
 72
     1
 10
-61.23073240879029
 20
14.71244265690277
 11
-60.41963337131568
 21
14.71244265690277
 72
     1
 10
-60.41963337131568
 20
14.71244265690277
 11
-60.41963337131568
 21
12.44389843921528
 72
     1
 10
-60.41963337131568
 20
12.44389843921528
 11
-59.22684066914917
 21
12.44389843921528
 72
     1
 10
-59.22684066914917
 20
12.44389843921528
 11
-59.22684066914917
 21
14.71244265690277
 72
     1
 10
-59.22684066914917
 20
14.71244265690277
 11
-58.41574163167667
 21
14.71244265690277
 72
     1
 10
-58.41574163167667
 20
14.71244265690277
 11
-58.41574163167667
 21
15.49770796302636
 97
        8
330
E6
330
126
330
E5
330
127
330
128
330
E9
330
E8
330
E7
 75
     1
 76
     0
 52
45.0
 41
0.1
 77
     0
 78
     1
 53
45.0
 43
0.0
 44
0.0
 45
-0.0707106781186548
 46
0.0707106781186548
 79
     0
 98
        1
 10
0.0
 20
0.0
  0
HATCH
  5
1AD
330
47
100
AcDbEntity
  8
1
  6
Continuous
 62
     2
100
AcDbHatch
 10
0.0
 20
0.0
 30
0.0
210
0.0
220
0.0
230
1.0
  2
_USER
 70
     0
 71
     1
 91
        2
 92
        1
 93
        8
 72
     1
 10
-56.27731417572969
 20
12.44389843921528
 11
-56.48879422920547
 21
12.98485898343316
 72
     1
 10
-56.48879422920547
 20
12.98485898343316
 11
-57.62123580587928
 21
12.98485898343316
 72
     1
 10
-57.62123580587928
 20
12.98485898343316
 11
-57.83271585935509
 21
12.44389843921528
 72
     1
 10
-57.83271585935509
 20
12.44389843921528
 11
-59.07322026960807
 21
12.44389843921528
 72
     1
 10
-59.07322026960807
 20
12.44389843921528
 11
-57.67526722266877
 21
15.49770796302636
 72
     1
 10
-57.67526722266877
 20
15.49770796302636
 11
-56.43476281241607
 21
15.49770796302636
 72
     1
 10
-56.43476281241607
 20
15.49770796302636
 11
-55.03680976547577
 21
12.44389843921528
 72
     1
 10
-55.03680976547577
 20
12.44389843921528
 11
-56.27731417572969
 21
12.44389843921528
 97
        8
330
12A
330
12B
330
E2
330
12C
330
E1
330
E4
330
129
330
E3
 92
       16
 93
        3
 72
     1
 10
-57.35518025473428
 20
13.66542224873976
 11
-57.05501501754188
 21
14.43323721472646
 72
     1
 10
-57.05501501754188
 20
14.43323721472646
 11
-56.75484978035178
 21
13.66542224873976
 72
     1
 10
-56.75484978035178
 20
13.66542224873976
 11
-57.35518025473428
 21
13.66542224873976
 97
        3
330
E0
330
12E
330
12D
 75
     1
 76
     0
 52
45.0
 41
0.1
 77
     0
 78
     1
 53
45.0
 43
0.0
 44
0.0
 45
-0.0707106781186548
 46
0.0707106781186548
 79
     0
 98
        1
 10
0.0
 20
0.0
  0
HATCH
  5
1AE
330
47
100
AcDbEntity
  8
1
  6
Continuous
 62
     2
100
AcDbHatch
 10
0.0
 20
0.0
 30
0.0
210
0.0
220
0.0
230
1.0
  2
_USER
 70
     0
 71
     1
 91
        2
 92
        1
 93
        8
 72
     1
 10
-56.27731417572969
 20
12.44389843921528
 11
-56.48879422920547
 21
12.98485898343316
 72
     1
 10
-56.48879422920547
 20
12.98485898343316
 11
-57.62123580587928
 21
12.98485898343316
 72
     1
 10
-57.62123580587928
 20
12.98485898343316
 11
-57.83271585935509
 21
12.44389843921528
 72
     1
 10
-57.83271585935509
 20
12.44389843921528
 11
-59.07322026960807
 21
12.44389843921528
 72
     1
 10
-59.07322026960807
 20
12.44389843921528
 11
-57.67526722266877
 21
15.49770796302636
 72
     1
 10
-57.67526722266877
 20
15.49770796302636
 11
-56.43476281241607
 21
15.49770796302636
 72
     1
 10
-56.43476281241607
 20
15.49770796302636
 11
-55.03680976547577
 21
12.44389843921528
 72
     1
 10
-55.03680976547577
 20
12.44389843921528
 11
-56.27731417572969
 21
12.44389843921528
 97
        8
330
12A
330
12B
330
E2
330
12C
330
E1
330
E4
330
129
330
E3
 92
       16
 93
        3
 72
     1
 10
-57.35518025473428
 20
13.66542224873976
 11
-57.05501501754188
 21
14.43323721472646
 72
     1
 10
-57.05501501754188
 20
14.43323721472646
 11
-56.75484978035178
 21
13.66542224873976
 72
     1
 10
-56.75484978035178
 20
13.66542224873976
 11
-57.35518025473428
 21
13.66542224873976
 97
        3
330
E0
330
12E
330
12D
 75
     1
 76
     0
 52
45.0
 41
0.1
 77
     0
 78
     1
 53
45.0
 43
0.0
 44
0.0
 45
-0.0707106781186548
 46
0.0707106781186548
 79
     0
 98
        1
 10
0.0
 20
0.0
  0
HATCH
  5
1AF
330
47
100
AcDbEntity
  8
1
  6
Continuous
 62
     2
100
AcDbHatch
 10
0.0
 20
0.0
 30
0.0
210
0.0
220
0.0
230
1.0
  2
_USER
 70
     0
 71
     1
 91
        1
 92
        1
 93
        4
 72
     1
 10
-54.64636576194377
 20
15.80308891538957
 11
-55.88687017219667
 21
15.80308891538957
 72
     1
 10
-55.88687017219667
 20
15.80308891538957
 11
-55.88687017219667
 21
18.85689843920076
 72
     1
 10
-55.88687017219667
 20
18.85689843920076
 11
-54.64636576194377
 21
18.85689843920076
 72
     1
 10
-54.64636576194377
 20
18.85689843920076
 11
-54.64636576194377
 21
15.80308891538957
 97
        4
330
DD
330
DF
330
12F
330
DE
 75
     1
 76
     0
 52
45.0
 41
0.1
 77
     0
 78
     1
 53
45.0
 43
0.0
 44
0.0
 45
-0.0707106781186548
 46
0.0707106781186548
 79
     0
 98
        1
 10
0.0
 20
0.0
  0
HATCH
  5
1B0
330
47
100
AcDbEntity
  8
1
  6
Continuous
 62
     2
100
AcDbHatch
 10
0.0
 20
0.0
 30
0.0
210
0.0
220
0.0
230
1.0
  2
_USER
 70
     0
 71
     1
 91
        1
 92
        1
 93
        4
 72
     1
 10
-54.64636576194377
 20
15.80308891538957
 11
-55.88687017219667
 21
15.80308891538957
 72
     1
 10
-55.88687017219667
 20
15.80308891538957
 11
-55.88687017219667
 21
18.85689843920076
 72
     1
 10
-55.88687017219667
 20
18.85689843920076
 11
-54.64636576194377
 21
18.85689843920076
 72
     1
 10
-54.64636576194377
 20
18.85689843920076
 11
-54.64636576194377
 21
15.80308891538957
 97
        4
330
DD
330
DF
330
12F
330
DE
 75
     1
 76
     0
 52
45.0
 41
0.1
 77
     0
 78
     1
 53
45.0
 43
0.0
 44
0.0
 45
-0.0707106781186548
 46
0.0707106781186548
 79
     0
 98
        1
 10
0.0
 20
0.0
  0
HATCH
  5
1B1
330
47
100
AcDbEntity
  8
1
  6
Continuous
 62
     2
100
AcDbHatch
 10
0.0
 20
0.0
 30
0.0
210
0.0
220
0.0
230
1.0
  2
_USER
 70
     0
 71
     1
 91
        1
 92
        1
 93
       12
 72
     1
 10
-50.42387959627297
 20
18.85689843920076
 11
-51.72640922703948
 21
17.38394790916456
 72
     1
 10
-51.72640922703948
 20
17.38394790916456
 11
-50.32845618009918
 21
15.80308891538957
 72
     1
 10
-50.32845618009918
 20
15.80308891538957
 11
-51.73118039784748
 21
15.80308891538957
 72
     1
 10
-51.73118039784748
 20
15.80308891538957
 11
-52.42777133591298
 21
16.59082070068328
 72
     1
 10
-52.42777133591298
 20
16.59082070068328
 11
-53.12436227397868
 21
15.80308891538957
 72
     1
 10
-53.12436227397868
 20
15.80308891538957
 11
-54.52708649172689
 21
15.80308891538957
 72
     1
 10
-54.52708649172689
 20
15.80308891538957
 11
-53.12913344478659
 21
17.38394790916456
 72
     1
 10
-53.12913344478659
 20
17.38394790916456
 11
-54.43166307555407
 21
18.85689843920076
 72
     1
 10
-54.43166307555407
 20
18.85689843920076
 11
-53.02893885780478
 21
18.85689843920076
 72
     1
 10
-53.02893885780478
 20
18.85689843920076
 11
-52.42777133591298
 21
18.17707511764527
 72
     1
 10
-52.42777133591298
 20
18.17707511764527
 11
-51.82660381402019
 21
18.85689843920076
 72
     1
 10
-51.82660381402019
 20
18.85689843920076
 11
-50.42387959627297
 21
18.85689843920076
 97
       12
330
D8
330
D7
330
D6
330
133
330
134
330
130
330
131
330
DC
330
DB
330
DA
330
D9
330
132
 75
     1
 76
     0
 52
45.0
 41
0.1
 77
     0
 78
     1
 53
45.0
 43
0.0
 44
0.0
 45
-0.0707106781186548
 46
0.0707106781186548
 79
     0
 98
        1
 10
0.0
 20
0.0
  0
HATCH
  5
1B2
330
47
100
AcDbEntity
  8
1
  6
Continuous
 62
     2
100
AcDbHatch
 10
0.0
 20
0.0
 30
0.0
210
0.0
220
0.0
230
1.0
  2
_USER
 70
     0
 71
     1
 91
        1
 92
        1
 93
       12
 72
     1
 10
-50.42387959627297
 20
18.85689843920076
 11
-51.72640922703948
 21
17.38394790916456
 72
     1
 10
-51.72640922703948
 20
17.38394790916456
 11
-50.32845618009918
 21
15.80308891538957
 72
     1
 10
-50.32845618009918
 20
15.80308891538957
 11
-51.73118039784748
 21
15.80308891538957
 72
     1
 10
-51.73118039784748
 20
15.80308891538957
 11
-52.42777133591298
 21
16.59082070068328
 72
     1
 10
-52.42777133591298
 20
16.59082070068328
 11
-53.12436227397868
 21
15.80308891538957
 72
     1
 10
-53.12436227397868
 20
15.80308891538957
 11
-54.52708649172689
 21
15.80308891538957
 72
     1
 10
-54.52708649172689
 20
15.80308891538957
 11
-53.12913344478659
 21
17.38394790916456
 72
     1
 10
-53.12913344478659
 20
17.38394790916456
 11
-54.43166307555407
 21
18.85689843920076
 72
     1
 10
-54.43166307555407
 20
18.85689843920076
 11
-53.02893885780478
 21
18.85689843920076
 72
     1
 10
-53.02893885780478
 20
18.85689843920076
 11
-52.42777133591298
 21
18.17707511764527
 72
     1
 10
-52.42777133591298
 20
18.17707511764527
 11
-51.82660381402019
 21
18.85689843920076
 72
     1
 10
-51.82660381402019
 20
18.85689843920076
 11
-50.42387959627297
 21
18.85689843920076
 97
       12
330
D8
330
D7
330
D6
330
133
330
134
330
130
330
131
330
DC
330
DB
330
DA
330
D9
330
132
 75
     1
 76
     0
 52
45.0
 41
0.1
 77
     0
 78
     1
 53
45.0
 43
0.0
 44
0.0
 45
-0.0707106781186548
 46
0.0707106781186548
 79
     0
 98
        1
 10
0.0
 20
0.0
  0
HATCH
  5
1B3
330
47
100
AcDbEntity
  8
1
  6
Continuous
 62
     2
100
AcDbHatch
 10
0.0
 20
0.0
 30
0.0
210
0.0
220
0.0
230
1.0
  2
_USER
 70
     0
 71
     1
 91
        2
 92
        1
 93
        6
 72
     1
 10
-69.44161501041899
 20
16.74616715653338
 11
-70.20038259819927
 21
16.74616715653338
 72
     1
 10
-70.20038259819927
 20
16.74616715653338
 11
-70.20038259819927
 21
15.80308891538957
 72
     1
 10
-70.20038259819927
 20
15.80308891538957
 11
-71.44088700845339
 21
15.80308891538957
 72
     1
 10
-71.44088700845339
 20
15.80308891538957
 11
-71.44088700845339
 21
18.85689843920076
 72
     1
 10
-71.44088700845339
 20
18.85689843920076
 11
-69.44161501041899
 21
18.85689843920076
 72
     2
 10
-69.44161501041899
 20
17.80153279786708
 40
1.055365641333697
 50
270.0
 51
450.0
 73
     0
 97
        6
330
100
330
FF
330
10C
330
10B
330
101
330
151
 92
       16
 93
        4
 72
     2
 10
-69.88308753665737
 20
17.84092876908957
 40
0.3528638246711182
 50
270.0
 51
450.0
 73
     1
 72
     1
 10
-69.88308753665737
 20
18.19379259376066
 11
-70.20038259819927
 21
18.19379259376066
 72
     1
 10
-70.20038259819927
 20
18.19379259376066
 11
-70.20038259819927
 21
17.48806494441845
 72
     1
 10
-70.20038259819927
 20
17.48806494441845
 11
-69.88308753665737
 21
17.48806494441845
 97
        4
330
165
330
FD
330
10D
330
FE
 75
     1
 76
     0
 52
45.0
 41
0.1
 77
     0
 78
     1
 53
45.0
 43
0.0
 44
0.0
 45
-0.0707106781186548
 46
0.0707106781186548
 79
     0
 98
        1
 10
0.0
 20
0.0
  0
HATCH
  5
1B4
330
47
100
AcDbEntity
  8
1
  6
Continuous
 62
     2
100
AcDbHatch
 10
0.0
 20
0.0
 30
0.0
210
0.0
220
0.0
230
1.0
  2
_USER
 70
     0
 71
     1
 91
        2
 92
        1
 93
        6
 72
     1
 10
-69.44161501041899
 20
16.74616715653338
 11
-70.20038259819927
 21
16.74616715653338
 72
     1
 10
-70.20038259819927
 20
16.74616715653338
 11
-70.20038259819927
 21
15.80308891538957
 72
     1
 10
-70.20038259819927
 20
15.80308891538957
 11
-71.44088700845339
 21
15.80308891538957
 72
     1
 10
-71.44088700845339
 20
15.80308891538957
 11
-71.44088700845339
 21
18.85689843920076
 72
     1
 10
-71.44088700845339
 20
18.85689843920076
 11
-69.44161501041899
 21
18.85689843920076
 72
     2
 10
-69.44161501041899
 20
17.80153279786708
 40
1.055365641333697
 50
270.0
 51
450.0
 73
     0
 97
        6
330
100
330
FF
330
10C
330
10B
330
101
330
151
 92
       16
 93
        4
 72
     2
 10
-69.88308753665737
 20
17.84092876908957
 40
0.3528638246711182
 50
270.0
 51
450.0
 73
     1
 72
     1
 10
-69.88308753665737
 20
18.19379259376066
 11
-70.20038259819927
 21
18.19379259376066
 72
     1
 10
-70.20038259819927
 20
18.19379259376066
 11
-70.20038259819927
 21
17.48806494441845
 72
     1
 10
-70.20038259819927
 20
17.48806494441845
 11
-69.88308753665737
 21
17.48806494441845
 97
        4
330
165
330
FD
330
10D
330
FE
 75
     1
 76
     0
 52
45.0
 41
0.1
 77
     0
 78
     1
 53
45.0
 43
0.0
 44
0.0
 45
-0.0707106781186548
 46
0.0707106781186548
 79
     0
 98
        1
 10
0.0
 20
0.0
  0
HATCH
  5
1B5
330
47
100
AcDbEntity
  8
1
  6
Continuous
 62
     2
100
AcDbHatch
 10
0.0
 20
0.0
 30
0.0
210
0.0
220
0.0
230
1.0
  2
_USER
 70
     0
 71
     1
 91
        2
 92
        1
 93
        4
 72
     2
 10
-66.88507226205988
 20
13.43222819081777
 40
2.065479772208564
 50
62.45185182430632
 51
117.5481481756664
 73
     1
 72
     2
 10
-67.16601215389318
 20
13.97080320112056
 40
1.45803408365149
 50
117.5481481756624
 51
242.4518518243376
 73
     1
 72
     2
 10
-66.88507226205988
 20
14.50937821142387
 40
2.065479772208515
 50
242.4518518243403
 51
297.548148175687
 73
     1
 72
     2
 10
-66.60413237022658
 20
13.97080320112056
 40
1.458034083652004
 50
297.548148175701
 51
422.451851824299
 73
     1
 97
        4
330
15D
330
15C
330
15E
330
15B
 92
       16
 93
        4
 72
     2
 10
-67.08481229840629
 20
13.97080320112056
 40
0.7717997786796947
 50
321.8795802028417
 51
398.120419797153
 73
     1
 72
     2
 10
-66.88507226205988
 20
14.12753437924107
 40
0.5179085730132965
 50
38.12041979714657
 51
141.8795802028592
 73
     1
 72
     2
 10
-66.68533222571378
 20
13.97080320112056
 40
0.7717997786794599
 50
141.8795802028366
 51
218.1204197971687
 73
     1
 72
     2
 10
-66.88507226205988
 20
13.81407202300056
 40
0.5179085730137332
 50
218.1204197971929
 51
321.8795802028013
 73
     1
 97
        4
330
179
330
176
330
177
330
178
 75
     1
 76
     0
 52
45.0
 41
0.1
 77
     0
 78
     1
 53
45.0
 43
0.0
 44
0.0
 45
-0.0707106781186548
 46
0.0707106781186548
 79
     0
 98
        1
 10
0.0
 20
0.0
  0
HATCH
  5
1B6
330
47
100
AcDbEntity
  8
1
  6
Continuous
 62
     2
100
AcDbHatch
 10
0.0
 20
0.0
 30
0.0
210
0.0
220
0.0
230
1.0
  2
_USER
 70
     0
 71
     1
 91
        2
 92
        1
 93
        4
 72
     2
 10
-66.88507226205988
 20
13.43222819081777
 40
2.065479772208564
 50
62.45185182430632
 51
117.5481481756664
 73
     1
 72
     2
 10
-67.16601215389318
 20
13.97080320112056
 40
1.45803408365149
 50
117.5481481756624
 51
242.4518518243376
 73
     1
 72
     2
 10
-66.88507226205988
 20
14.50937821142387
 40
2.065479772208515
 50
242.4518518243403
 51
297.548148175687
 73
     1
 72
     2
 10
-66.60413237022658
 20
13.97080320112056
 40
1.458034083652004
 50
297.548148175701
 51
422.451851824299
 73
     1
 97
        4
330
15D
330
15C
330
15E
330
15B
 92
       16
 93
        4
 72
     2
 10
-67.08481229840629
 20
13.97080320112056
 40
0.7717997786796947
 50
321.8795802028417
 51
398.120419797153
 73
     1
 72
     2
 10
-66.88507226205988
 20
14.12753437924107
 40
0.5179085730132965
 50
38.12041979714657
 51
141.8795802028592
 73
     1
 72
     2
 10
-66.68533222571378
 20
13.97080320112056
 40
0.7717997786794599
 50
141.8795802028366
 51
218.1204197971687
 73
     1
 72
     2
 10
-66.88507226205988
 20
13.81407202300056
 40
0.5179085730137332
 50
218.1204197971929
 51
321.8795802028013
 73
     1
 97
        4
330
179
330
176
330
177
330
178
 75
     1
 76
     0
 52
45.0
 41
0.1
 77
     0
 78
     1
 53
45.0
 43
0.0
 44
0.0
 45
-0.0707106781186548
 46
0.0707106781186548
 79
     0
 98
        1
 10
0.0
 20
0.0
  0
HATCH
  5
1B7
330
47
100
AcDbEntity
  8
1
  6
Continuous
 62
     2
100
AcDbHatch
 10
0.0
 20
0.0
 30
0.0
210
0.0
220
0.0
230
1.0
  2
_USER
 70
     0
 71
     1
 91
        2
 92
        1
 93
       12
 72
     1
 10
-59.99007706765059
 20
18.15888483375778
 11
-61.32600489407827
 21
18.15888483375778
 72
     1
 10
-61.32600489407827
 20
18.15888483375778
 11
-61.32600489407827
 21
17.67900048001607
 72
     1
 10
-61.32600489407827
 20
17.67900048001607
 11
-59.99007706765059
 21
17.67900048001607
 72
     1
 10
-59.99007706765059
 20
17.67900048001607
 11
-59.99007706765059
 21
16.98098687457377
 72
     1
 10
-59.99007706765059
 20
16.98098687457377
 11
-61.32600489407827
 21
16.98098687457377
 72
     1
 10
-61.32600489407827
 20
16.98098687457377
 11
-61.32600489407827
 21
16.50110252083206
 72
     1
 10
-61.32600489407827
 20
16.50110252083206
 11
-59.99007706765059
 21
16.50110252083206
 72
     1
 10
-59.99007706765059
 20
16.50110252083206
 11
-59.99007706765059
 21
15.80308891538957
 72
     1
 10
-59.99007706765059
 20
15.80308891538957
 11
-63.14039679143158
 21
15.80308891538957
 72
     2
 10
-63.14039679143158
 20
17.32999367729488
 40
1.526904761905879
 50
90.0
 51
270.0
 73
     0
 72
     1
 10
-63.14039679143158
 20
18.85689843920076
 11
-59.99007706765059
 21
18.85689843920076
 72
     1
 10
-59.99007706765059
 20
18.85689843920076
 11
-59.99007706765059
 21
18.15888483375778
 97
       12
330
114
330
166
330
115
330
116
330
117
330
118
330
F5
330
F4
330
F3
330
F2
330
119
330
113
 92
       16
 93
        4
 72
     2
 10
-62.92412478126639
 20
17.48672485541536
 40
0.5179085730135321
 50
38.12041979714286
 51
141.8795802028484
 73
     1
 72
     2
 10
-62.72438474492009
 20
17.32999367729488
 40
0.7717997786796724
 50
141.8795802028404
 51
218.120419797156
 73
     1
 72
     2
 10
-62.92412478126639
 20
17.17326249917446
 40
0.5179085730134315
 50
218.1204197971516
 51
321.8795802028571
 73
     1
 72
     2
 10
-63.12386481761257
 20
17.32999367729488
 40
0.7717997786796351
 50
321.879580202844
 51
398.1204197971596
 73
     1
 97
        4
330
160
330
15F
330
15A
330
159
 75
     1
 76
     0
 52
45.0
 41
0.1
 77
     0
 78
     1
 53
45.0
 43
0.0
 44
0.0
 45
-0.0707106781186548
 46
0.0707106781186548
 79
     0
 98
        1
 10
0.0
 20
0.0
  0
HATCH
  5
1B8
330
47
100
AcDbEntity
  8
1
  6
Continuous
 62
     2
100
AcDbHatch
 10
0.0
 20
0.0
 30
0.0
210
0.0
220
0.0
230
1.0
  2
_USER
 70
     0
 71
     1
 91
        2
 92
        1
 93
       12
 72
     1
 10
-59.99007706765059
 20
18.15888483375778
 11
-61.32600489407827
 21
18.15888483375778
 72
     1
 10
-61.32600489407827
 20
18.15888483375778
 11
-61.32600489407827
 21
17.67900048001607
 72
     1
 10
-61.32600489407827
 20
17.67900048001607
 11
-59.99007706765059
 21
17.67900048001607
 72
     1
 10
-59.99007706765059
 20
17.67900048001607
 11
-59.99007706765059
 21
16.98098687457377
 72
     1
 10
-59.99007706765059
 20
16.98098687457377
 11
-61.32600489407827
 21
16.98098687457377
 72
     1
 10
-61.32600489407827
 20
16.98098687457377
 11
-61.32600489407827
 21
16.50110252083206
 72
     1
 10
-61.32600489407827
 20
16.50110252083206
 11
-59.99007706765059
 21
16.50110252083206
 72
     1
 10
-59.99007706765059
 20
16.50110252083206
 11
-59.99007706765059
 21
15.80308891538957
 72
     1
 10
-59.99007706765059
 20
15.80308891538957
 11
-63.14039679143158
 21
15.80308891538957
 72
     2
 10
-63.14039679143158
 20
17.32999367729488
 40
1.526904761905879
 50
90.0
 51
270.0
 73
     0
 72
     1
 10
-63.14039679143158
 20
18.85689843920076
 11
-59.99007706765059
 21
18.85689843920076
 72
     1
 10
-59.99007706765059
 20
18.85689843920076
 11
-59.99007706765059
 21
18.15888483375778
 97
       12
330
114
330
166
330
115
330
116
330
117
330
118
330
F5
330
F4
330
F3
330
F2
330
119
330
113
 92
       16
 93
        4
 72
     2
 10
-62.92412478126639
 20
17.48672485541536
 40
0.5179085730135321
 50
38.12041979714286
 51
141.8795802028484
 73
     1
 72
     2
 10
-62.72438474492009
 20
17.32999367729488
 40
0.7717997786796724
 50
141.8795802028404
 51
218.120419797156
 73
     1
 72
     2
 10
-62.92412478126639
 20
17.17326249917446
 40
0.5179085730134315
 50
218.1204197971516
 51
321.8795802028571
 73
     1
 72
     2
 10
-63.12386481761257
 20
17.32999367729488
 40
0.7717997786796351
 50
321.879580202844
 51
398.1204197971596
 73
     1
 97
        4
330
160
330
15F
330
15A
330
159
 75
     1
 76
     0
 52
45.0
 41
0.1
 77
     0
 78
     1
 53
45.0
 43
0.0
 44
0.0
 45
-0.0707106781186548
 46
0.0707106781186548
 79
     0
 98
        1
 10
0.0
 20
0.0
  0
HATCH
  5
1B9
330
47
100
AcDbEntity
  8
1
  6
Continuous
 62
     2
100
AcDbHatch
 10
0.0
 20
0.0
 30
0.0
210
0.0
220
0.0
230
1.0
  2
_USER
 70
     0
 71
     1
 91
        4
 92
        1
 93
        8
 72
     1
 10
-71.91800408932019
 20
18.43265382379877
 11
-71.91800408932019
 21
12.86814305459856
 72
     2
 10
-72.34224870470408
 20
12.86814305459856
 40
0.4242446153832802
 50
0.0
 51
90.0
 73
     0
 72
     1
 10
-72.34224870470408
 20
12.44389843921528
 11
-77.81556079542088
 21
12.44389843921528
 72
     2
 10
-77.81556079542088
 20
12.86814305459856
 40
0.4242446153828041
 50
90.0
 51
180.0
 73
     0
 72
     1
 10
-78.23980541080368
 20
12.86814305459856
 11
-78.23980541080368
 21
18.43265382379877
 72
     2
 10
-77.81556079542088
 20
18.43265382379877
 40
0.4242446153837989
 50
180.0
 51
270.0
 73
     0
 72
     1
 10
-77.81556079542088
 20
18.85689843918257
 11
-72.34224870470408
 21
18.85689843918257
 72
     2
 10
-72.34224870470408
 20
18.43265382379877
 40
0.4242446153838841
 50
270.0
 51
360.0
 73
     0
 97
        8
330
108
330
156
330
109
330
161
330
106
330
158
330
107
330
157
 92
       16
 93
        1
 72
     2
 10
-75.19597514490337
 20
16.11377159544327
 40
0.4709789327785074
 50
0.0
 51
360.0
 73
     1
 97
        1
330
17C
 92
       16
 93
        8
 72
     2
 10
-74.64611743214269
 20
15.00462999547486
 40
0.3157169230765344
 50
115.3740086783517
 51
180.0
 73
     1
 72
     1
 10
-74.96183435521948
 20
15.00462999547486
 11
-74.96183435521948
 21
14.42277858877978
 72
     2
 10
-74.64611743214269
 20
14.42277858877978
 40
0.315716923076792
 50
180.0
 51
269.8110329574542
 73
     1
 72
     2
 10
-74.64050129683267
 20
16.12561353634877
 40
2.018561131933266
 50
269.8110329575858
 51
450.1889670424142
 73
     1
 72
     2
 10
-74.64611743214269
 20
17.82844848391787
 40
0.3157169230760711
 50
90.18896704254594
 51
180.0
 73
     1
 72
     1
 10
-74.96183435521948
 20
17.82844848391787
 11
-74.96183435521948
 21
17.22291319541108
 72
     2
 10
-74.64611743214269
 20
17.22291319541108
 40
0.315716923076792
 50
180.0
 51
244.6259913216484
 73
     1
 72
     2
 10
-75.17216013023057
 20
16.11377159544327
 40
0.911848150144459
 50
295.3740086781928
 51
424.6259913218236
 73
     0
 97
        8
330
16E
330
CF
330
16B
330
16C
330
14A
330
CE
330
16D
330
149
 92
       16
 93
       12
 72
     2
 10
-77.22166611867439
 20
13.47217091784887
 40
0.3157169230756836
 50
180.0
 51
270.0
 73
     1
 72
     1
 10
-77.22166611867439
 20
13.15645399477216
 11
-75.74583285766477
 21
13.15645399477216
 72
     2
 10
-75.74583285766477
 20
13.47217091784887
 40
0.3157169230767103
 50
270.0
 51
360.0
 73
     1
 72
     1
 10
-75.43011593458817
 20
13.47217091784887
 11
-75.43011593458817
 21
15.00294184938048
 72
     2
 10
-75.74583285766477
 20
15.00294184938048
 40
0.315716923076593
 50
0.0
 51
64.80558935146027
 73
     1
 72
     2
 10
-75.22324841008978
 20
16.11377159544327
 40
0.9118975235576082
 50
115.1944106485122
 51
244.8055893514716
 73
     0
 72
     2
 10
-75.74583285766477
 20
17.22460134150546
 40
0.3157169230761203
 50
295.1944106485397
 51
360.0
 73
     1
 72
     1
 10
-75.43011593458817
 20
17.22460134150546
 11
-75.43011593458817
 21
17.82862596056597
 72
     2
 10
-75.74583285766477
 20
17.82862596056597
 40
0.315716923076593
 50
0.0
 51
90.0
 73
     1
 72
     1
 10
-75.74583285766477
 20
18.14434288364217
 11
-77.22166611867439
 21
18.14434288364217
 72
     2
 10
-77.22166611867439
 20
17.82862596056597
 40
0.3157169230762022
 50
90.0
 51
180.0
 73
     1
 72
     1
 10
-77.53738304175008
 20
17.82862596056597
 11
-77.53738304175008
 21
13.47217091784887
 97
       12
330
152
330
10A
330
155
330
105
330
162
330
163
330
154
330
104
330
153
330
103
330
164
330
102
 75
     1
 76
     0
 52
45.0
 41
0.1
 77
     0
 78
     1
 53
45.0
 43
0.0
 44
0.0
 45
-0.0707106781186548
 46
0.0707106781186548
 79
     0
 98
        1
 10
0.0
 20
0.0
  0
HATCH
  5
1BA
330
47
100
AcDbEntity
  8
1
  6
Continuous
 62
     2
100
AcDbHatch
 10
0.0
 20
0.0
 30
0.0
210
0.0
220
0.0
230
1.0
  2
_USER
 70
     0
 71
     1
 91
        4
 92
        1
 93
        8
 72
     1
 10
-71.91800408932019
 20
18.43265382379877
 11
-71.91800408932019
 21
12.86814305459856
 72
     2
 10
-72.34224870470408
 20
12.86814305459856
 40
0.4242446153832802
 50
0.0
 51
90.0
 73
     0
 72
     1
 10
-72.34224870470408
 20
12.44389843921528
 11
-77.81556079542088
 21
12.44389843921528
 72
     2
 10
-77.81556079542088
 20
12.86814305459856
 40
0.4242446153828041
 50
90.0
 51
180.0
 73
     0
 72
     1
 10
-78.23980541080368
 20
12.86814305459856
 11
-78.23980541080368
 21
18.43265382379877
 72
     2
 10
-77.81556079542088
 20
18.43265382379877
 40
0.4242446153837989
 50
180.0
 51
270.0
 73
     0
 72
     1
 10
-77.81556079542088
 20
18.85689843918257
 11
-72.34224870470408
 21
18.85689843918257
 72
     2
 10
-72.34224870470408
 20
18.43265382379877
 40
0.4242446153838841
 50
270.0
 51
360.0
 73
     0
 97
        8
330
108
330
156
330
109
330
161
330
106
330
158
330
107
330
157
 92
       16
 93
        1
 72
     2
 10
-75.19597514490337
 20
16.11377159544327
 40
0.4709789327785074
 50
0.0
 51
360.0
 73
     1
 97
        1
330
17C
 92
       16
 93
        8
 72
     2
 10
-74.64611743214269
 20
15.00462999547486
 40
0.3157169230765344
 50
115.3740086783517
 51
180.0
 73
     1
 72
     1
 10
-74.96183435521948
 20
15.00462999547486
 11
-74.96183435521948
 21
14.42277858877978
 72
     2
 10
-74.64611743214269
 20
14.42277858877978
 40
0.315716923076792
 50
180.0
 51
269.8110329574542
 73
     1
 72
     2
 10
-74.64050129683267
 20
16.12561353634877
 40
2.018561131933266
 50
269.8110329575858
 51
450.1889670424142
 73
     1
 72
     2
 10
-74.64611743214269
 20
17.82844848391787
 40
0.3157169230760711
 50
90.18896704254594
 51
180.0
 73
     1
 72
     1
 10
-74.96183435521948
 20
17.82844848391787
 11
-74.96183435521948
 21
17.22291319541108
 72
     2
 10
-74.64611743214269
 20
17.22291319541108
 40
0.315716923076792
 50
180.0
 51
244.6259913216484
 73
     1
 72
     2
 10
-75.17216013023057
 20
16.11377159544327
 40
0.911848150144459
 50
295.3740086781928
 51
424.6259913218236
 73
     0
 97
        8
330
16E
330
CF
330
16B
330
16C
330
14A
330
CE
330
16D
330
149
 92
       16
 93
       12
 72
     2
 10
-77.22166611867439
 20
13.47217091784887
 40
0.3157169230756836
 50
180.0
 51
270.0
 73
     1
 72
     1
 10
-77.22166611867439
 20
13.15645399477216
 11
-75.74583285766477
 21
13.15645399477216
 72
     2
 10
-75.74583285766477
 20
13.47217091784887
 40
0.3157169230767103
 50
270.0
 51
360.0
 73
     1
 72
     1
 10
-75.43011593458817
 20
13.47217091784887
 11
-75.43011593458817
 21
15.00294184938048
 72
     2
 10
-75.74583285766477
 20
15.00294184938048
 40
0.315716923076593
 50
0.0
 51
64.80558935146027
 73
     1
 72
     2
 10
-75.22324841008978
 20
16.11377159544327
 40
0.9118975235576082
 50
115.1944106485122
 51
244.8055893514716
 73
     0
 72
     2
 10
-75.74583285766477
 20
17.22460134150546
 40
0.3157169230761203
 50
295.1944106485397
 51
360.0
 73
     1
 72
     1
 10
-75.43011593458817
 20
17.22460134150546
 11
-75.43011593458817
 21
17.82862596056597
 72
     2
 10
-75.74583285766477
 20
17.82862596056597
 40
0.315716923076593
 50
0.0
 51
90.0
 73
     1
 72
     1
 10
-75.74583285766477
 20
18.14434288364217
 11
-77.22166611867439
 21
18.14434288364217
 72
     2
 10
-77.22166611867439
 20
17.82862596056597
 40
0.3157169230762022
 50
90.0
 51
180.0
 73
     1
 72
     1
 10
-77.53738304175008
 20
17.82862596056597
 11
-77.53738304175008
 21
13.47217091784887
 97
       12
330
152
330
10A
330
155
330
105
330
162
330
163
330
154
330
104
330
153
330
103
330
164
330
102
 75
     1
 76
     0
 52
45.0
 41
0.1
 77
     0
 78
     1
 53
45.0
 43
0.0
 44
0.0
 45
-0.0707106781186548
 46
0.0707106781186548
 79
     0
 98
        1
 10
0.0
 20
0.0
  0
HATCH
  5
1BB
330
47
100
AcDbEntity
  8
1
  6
Continuous
 62
     2
100
AcDbHatch
 10
0.0
 20
0.0
 30
0.0
210
0.0
220
0.0
230
1.0
  2
_USER
 70
     0
 71
     1
 91
        1
 92
        1
 93
       18
 72
     1
 10
-50.32845618009918
 20
14.71244265690277
 11
-51.13955521757256
 21
14.71244265690277
 72
     1
 10
-51.13955521757256
 20
14.71244265690277
 11
-51.13955521757256
 21
12.44389843921528
 72
     1
 10
-51.13955521757256
 20
12.44389843921528
 11
-52.33234791974027
 21
12.44389843921528
 72
     1
 10
-52.33234791974027
 20
12.44389843921528
 11
-52.33234791974027
 21
14.71244265690277
 72
     1
 10
-52.33234791974027
 20
14.71244265690277
 11
-53.43598721930837
 21
14.71244265690277
 72
     2
 10
-53.43598721930837
 20
13.75791965007667
 40
0.9545230068261006
 50
90.0
 51
109.3371432194318
 73
     1
 72
     2
 10
-53.58265721741208
 20
14.17587463045956
 40
0.5115800601944194
 50
109.3371432194851
 51
151.4785267424224
 73
     1
 72
     2
 10
-53.20529995933069
 20
13.97080320112056
 40
0.9410597353348844
 50
151.4785267423624
 51
208.5214732576697
 73
     1
 72
     2
 10
-53.58265721741208
 20
13.76573177178207
 40
0.5115800601960145
 50
208.5214732576868
 51
246.6277221118447
 73
     1
 72
     2
 10
-53.42621718470898
 20
14.12772379049207
 40
0.905929784985274
 50
246.6277221118186
 51
288.4480761180818
 73
     1
 72
     2
 10
-53.84438491837088
 20
15.38126956652866
 40
2.227384008972744
 50
288.4480761181333
 51
301.9309089499399
 73
     1
 72
     1
 10
-52.66632987634696
 20
13.49091884737888
 11
-52.66632987634696
 21
12.61840184057556
 72
     2
 10
-54.00225779346368
 20
17.28348414637696
 40
4.852596863498824
 50
74.02000874166129
 51
84.84185523036375
 73
     0
 72
     2
 10
-53.71340169872786
 20
14.08359356315538
 40
1.639695123940456
 50
84.84185523032407
 51
164.9381082228988
 73
     0
 72
     2
 10
-54.13252954218947
 20
13.97080320112056
 40
1.205656168393009
 50
164.9381082229043
 51
195.061891777097
 73
     0
 72
     2
 10
-53.71340169872786
 20
13.85801283908566
 40
1.639695123940211
 50
195.0618917771049
 51
270.0
 73
     0
 72
     1
 10
-53.71340169872786
 20
15.49770796302587
 11
-50.32845618009918
 21
15.49770796302636
 72
     1
 10
-50.32845618009918
 20
15.49770796302636
 11
-50.32845618009918
 21
14.71244265690277
 97
       18
330
D1
330
167
330
168
330
150
330
14F
330
135
330
14E
330
14D
330
169
330
14C
330
16A
330
14B
330
136
330
D0
330
D5
330
D4
330
D3
330
D2
 75
     1
 76
     0
 52
45.0
 41
0.1
 77
     0
 78
     1
 53
45.0
 43
0.0
 44
0.0
 45
-0.0707106781186548
 46
0.0707106781186548
 79
     0
 98
        1
 10
0.0
 20
0.0
  0
HATCH
  5
1BC
330
47
100
AcDbEntity
  8
1
  6
Continuous
 62
     2
100
AcDbHatch
 10
0.0
 20
0.0
 30
0.0
210
0.0
220
0.0
230
1.0
  2
_USER
 70
     0
 71
     1
 91
        1
 92
        1
 93
       18
 72
     1
 10
-50.32845618009918
 20
14.71244265690277
 11
-51.13955521757256
 21
14.71244265690277
 72
     1
 10
-51.13955521757256
 20
14.71244265690277
 11
-51.13955521757256
 21
12.44389843921528
 72
     1
 10
-51.13955521757256
 20
12.44389843921528
 11
-52.33234791974027
 21
12.44389843921528
 72
     1
 10
-52.33234791974027
 20
12.44389843921528
 11
-52.33234791974027
 21
14.71244265690277
 72
     1
 10
-52.33234791974027
 20
14.71244265690277
 11
-53.43598721930837
 21
14.71244265690277
 72
     2
 10
-53.43598721930837
 20
13.75791965007667
 40
0.9545230068261006
 50
90.0
 51
109.3371432194318
 73
     1
 72
     2
 10
-53.58265721741208
 20
14.17587463045956
 40
0.5115800601944194
 50
109.3371432194851
 51
151.4785267424224
 73
     1
 72
     2
 10
-53.20529995933069
 20
13.97080320112056
 40
0.9410597353348844
 50
151.4785267423624
 51
208.5214732576697
 73
     1
 72
     2
 10
-53.58265721741208
 20
13.76573177178207
 40
0.5115800601960145
 50
208.5214732576868
 51
246.6277221118447
 73
     1
 72
     2
 10
-53.42621718470898
 20
14.12772379049207
 40
0.905929784985274
 50
246.6277221118186
 51
288.4480761180818
 73
     1
 72
     2
 10
-53.84438491837088
 20
15.38126956652866
 40
2.227384008972744
 50
288.4480761181333
 51
301.9309089499399
 73
     1
 72
     1
 10
-52.66632987634696
 20
13.49091884737888
 11
-52.66632987634696
 21
12.61840184057556
 72
     2
 10
-54.00225779346368
 20
17.28348414637696
 40
4.852596863498824
 50
74.02000874166129
 51
84.84185523036375
 73
     0
 72
     2
 10
-53.71340169872786
 20
14.08359356315538
 40
1.639695123940456
 50
84.84185523032407
 51
164.9381082228988
 73
     0
 72
     2
 10
-54.13252954218947
 20
13.97080320112056
 40
1.205656168393009
 50
164.9381082229043
 51
195.061891777097
 73
     0
 72
     2
 10
-53.71340169872786
 20
13.85801283908566
 40
1.639695123940211
 50
195.0618917771049
 51
270.0
 73
     0
 72
     1
 10
-53.71340169872786
 20
15.49770796302587
 11
-50.32845618009918
 21
15.49770796302636
 72
     1
 10
-50.32845618009918
 20
15.49770796302636
 11
-50.32845618009918
 21
14.71244265690277
 97
       18
330
D1
330
167
330
168
330
150
330
14F
330
135
330
14E
330
14D
330
169
330
14C
330
16A
330
14B
330
136
330
D0
330
D5
330
D4
330
D3
330
D2
 75
     1
 76
     0
 52
45.0
 41
0.1
 77
     0
 78
     1
 53
45.0
 43
0.0
 44
0.0
 45
-0.0707106781186548
 46
0.0707106781186548
 79
     0
 98
        1
 10
0.0
 20
0.0
  0
HATCH
  5
1BD
330
47
100
AcDbEntity
  8
1
  6
Continuous
 62
     2
100
AcDbHatch
 10
0.0
 20
0.0
 30
0.0
210
0.0
220
0.0
230
1.0
  2
_USER
 70
     0
 71
     1
 91
        1
 92
        1
 93
       14
 72
     2
 10
-69.81610317798078
 20
13.85801283908566
 40
1.639695123940505
 50
84.84185523036236
 51
164.9381082228865
 73
     1
 72
     2
 10
-70.23523102144358
 20
13.97080320112056
 40
1.205656168390943
 50
164.9381082228765
 51
195.061891777095
 73
     1
 72
     2
 10
-69.81610317798078
 20
14.08359356315538
 40
1.63969512393939
 50
195.0618917770899
 51
275.1581447696395
 73
     1
 72
     2
 10
-70.10495927271668
 20
17.28348414637696
 40
4.852596863498134
 50
275.1581447696249
 51
285.9799912583529
 73
     1
 72
     1
 10
-68.76903135559888
 20
12.61840184057616
 11
-68.76903135559888
 21
13.49091884737936
 72
     2
 10
-69.94708639762376
 20
15.38126956652926
 40
2.227384008972739
 50
58.0690910500408
 51
71.55192388186722
 73
     0
 72
     2
 10
-69.52891866396297
 20
14.12772379049207
 40
0.905929784984916
 50
71.55192388184147
 51
113.3722778881291
 73
     0
 72
     2
 10
-69.68535869666499
 20
13.76573177178207
 40
0.5115800601948034
 50
113.3722778881728
 51
151.4785267423044
 73
     0
 72
     2
 10
-69.30800143858468
 20
13.97080320112056
 40
0.9410597353332545
 50
151.4785267422942
 51
208.5214732577331
 73
     0
 72
     2
 10
-69.68535869666499
 20
14.17587463045956
 40
0.5115800601948796
 50
208.5214732576956
 51
246.6277221118009
 73
     0
 72
     2
 10
-69.52891866396297
 20
13.81388261174897
 40
0.9059297849853228
 50
246.627722111871
 51
288.4480761181466
 73
     0
 72
     2
 10
-69.94708639762376
 20
12.56033683571238
 40
2.227384008973474
 50
288.4480761181328
 51
301.9309089499593
 73
     0
 72
     1
 10
-68.76903135559888
 20
14.45068755486227
 11
-68.76903135559888
 21
15.32320456166556
 72
     2
 10
-70.10495927271668
 20
10.65812225586467
 40
4.852596863498064
 50
74.02000874164737
 51
84.84185523037506
 73
     1
 97
       14
330
16F
330
170
330
171
330
172
330
137
330
148
330
147
330
146
330
173
330
174
330
145
330
175
330
138
330
144
 75
     1
 76
     0
 52
45.0
 41
0.1
 77
     0
 78
     1
 53
45.0
 43
0.0
 44
0.0
 45
-0.0707106781186548
 46
0.0707106781186548
 79
     0
 98
        1
 10
0.0
 20
0.0
  0
HATCH
  5
1BE
330
47
100
AcDbEntity
  8
1
  6
Continuous
 62
     2
100
AcDbHatch
 10
0.0
 20
0.0
 30
0.0
210
0.0
220
0.0
230
1.0
  2
_USER
 70
     0
 71
     1
 91
        1
 92
        1
 93
       14
 72
     2
 10
-69.81610317798078
 20
13.85801283908566
 40
1.639695123940505
 50
84.84185523036236
 51
164.9381082228865
 73
     1
 72
     2
 10
-70.23523102144358
 20
13.97080320112056
 40
1.205656168390943
 50
164.9381082228765
 51
195.061891777095
 73
     1
 72
     2
 10
-69.81610317798078
 20
14.08359356315538
 40
1.63969512393939
 50
195.0618917770899
 51
275.1581447696395
 73
     1
 72
     2
 10
-70.10495927271668
 20
17.28348414637696
 40
4.852596863498134
 50
275.1581447696249
 51
285.9799912583529
 73
     1
 72
     1
 10
-68.76903135559888
 20
12.61840184057616
 11
-68.76903135559888
 21
13.49091884737936
 72
     2
 10
-69.94708639762376
 20
15.38126956652926
 40
2.227384008972739
 50
58.0690910500408
 51
71.55192388186722
 73
     0
 72
     2
 10
-69.52891866396297
 20
14.12772379049207
 40
0.905929784984916
 50
71.55192388184147
 51
113.3722778881291
 73
     0
 72
     2
 10
-69.68535869666499
 20
13.76573177178207
 40
0.5115800601948034
 50
113.3722778881728
 51
151.4785267423044
 73
     0
 72
     2
 10
-69.30800143858468
 20
13.97080320112056
 40
0.9410597353332545
 50
151.4785267422942
 51
208.5214732577331
 73
     0
 72
     2
 10
-69.68535869666499
 20
14.17587463045956
 40
0.5115800601948796
 50
208.5214732576956
 51
246.6277221118009
 73
     0
 72
     2
 10
-69.52891866396297
 20
13.81388261174897
 40
0.9059297849853228
 50
246.627722111871
 51
288.4480761181466
 73
     0
 72
     2
 10
-69.94708639762376
 20
12.56033683571238
 40
2.227384008973474
 50
288.4480761181328
 51
301.9309089499593
 73
     0
 72
     1
 10
-68.76903135559888
 20
14.45068755486227
 11
-68.76903135559888
 21
15.32320456166556
 72
     2
 10
-70.10495927271668
 20
10.65812225586467
 40
4.852596863498064
 50
74.02000874164737
 51
84.84185523037506
 73
     1
 97
       14
330
16F
330
170
330
171
330
172
330
137
330
148
330
147
330
146
330
173
330
174
330
145
330
175
330
138
330
144
 75
     1
 76
     0
 52
45.0
 41
0.1
 77
     0
 78
     1
 53
45.0
 43
0.0
 44
0.0
 45
-0.0707106781186548
 46
0.0707106781186548
 79
     0
 98
        1
 10
0.0
 20
0.0
  0
ENDBLK
  5
49
330
47
100
AcDbEntity
  8
0
100
AcDbBlockEnd
  0
BLOCK
  5
4B
330
4A
100
AcDbEntity
  8
0
100
AcDbBlockBegin
  2
_punkt
 70
     0
 10
47.06834422938373
 20
5.15039843919897
 30
0.0
  3
_punkt
  1

  0
LINE
  5
1BF
330
4A
100
AcDbEntity
  8
1
  6
Continuous
 62
     2
100
AcDbLine
 10
47.06834422938373
 20
5.15039843919897
 30
0.0
 11
52.06834422938272
 21
5.15039843919897
 31
0.0
  0
LINE
  5
1C0
330
4A
100
AcDbEntity
  8
1
  6
Continuous
 62
     2
100
AcDbLine
 10
47.06834422938373
 20
5.15039843919897
 30
0.0
 11
47.06834422938373
 21
0.15039843919885
 31
0.0
  0
ENDBLK
  5
4C
330
4A
100
AcDbEntity
  8
0
100
AcDbBlockEnd
  0
BLOCK
  5
50
330
4D
100
AcDbEntity
  8
0
100
AcDbBlockBegin
  2
A4I_CS
 70
     0
 10
47.06834422938373
 20
0.15039843919885
 30
0.0
  3
A4I_CS
  1

  0
INSERT
  5
4E
330
4D
100
AcDbEntity
  8
1
100
AcDbBlockReference
  2
_rahmen
 10
47.06834422938373
 20
0.15039843919885
 30
0.0
  0
INSERT
  5
4F
330
4D
100
AcDbEntity
  8
1
100
AcDbBlockReference
  2
_punkt
 10
47.06834422938373
 20
5.15039843919897
 30
0.0
  0
ENDBLK
  5
51
330
4D
100
AcDbEntity
  8
0
100
AcDbBlockEnd
  0
BLOCK
  5
53
330
52
100
AcDbEntity
  8
0
100
AcDbBlockBegin
  2
ESB_2-MZDB-select__1
 70
     0
 10
-11.9798814207048
 20
59.8250004820782
 30
0.0
  3
ESB_2-MZDB-select__1
  1

  0
LINE
  5
1C1
330
52
100
AcDbEntity
  8
0
  6
Continuous
 62
     7
100
AcDbLine
 10
-11.2396435441987
 20
82.32500048207821
 30
0.0
 11
-11.2396435441987
 21
80.82500048207821
 31
0.0
  0
LINE
  5
1C2
330
52
100
AcDbEntity
  8
0
  6
Continuous
 62
     7
100
AcDbLine
 10
-11.2396435441987
 20
71.32500048207821
 30
0.0
 11
-11.2396435441987
 21
80.82500048207821
 31
0.0
  0
LINE
  5
1C3
330
52
100
AcDbEntity
  8
0
  6
Continuous
 62
     7
100
AcDbLine
 10
-11.48747754419869
 20
59.8250004820782
 30
0.0
 11
-11.27041732211503
 21
61.05601017334226
 31
0.0
  0
LINE
  5
1C4
330
52
100
AcDbEntity
  8
0
  6
Continuous
 62
     7
100
AcDbLine
 10
-11.48747754419869
 20
59.8250004820782
 30
0.0
 11
-11.9798814207048
 21
59.91182457091166
 31
0.0
  0
LINE
  5
1C5
330
52
100
AcDbEntity
  8
0
  6
Continuous
 62
     7
100
AcDbLine
 10
-11.9798814207048
 20
59.91182457091166
 30
0.0
 11
-11.76282119862113
 21
61.14283426217573
 31
0.0
  0
LINE
  5
1C6
330
52
100
AcDbEntity
  8
0
  6
Continuous
 62
     2
100
AcDbLine
 10
-11.27041732211503
 20
61.05601017334226
 30
0.0
 11
-11.76282119862113
 21
61.14283426217573
 31
0.0
  0
LINE
  5
1C7
330
52
100
AcDbEntity
  8
0
  6
Continuous
 62
     7
100
AcDbLine
 10
-11.76282119862113
 20
61.14283426217573
 30
0.0
 11
-11.01424410603559
 21
65.38822591793837
 31
0.0
  0
LINE
  5
1C8
330
52
100
AcDbEntity
  8
0
  6
Continuous
 62
     7
100
AcDbLine
 10
-11.2396435441987
 20
82.32500048207821
 30
0.0
 11
-9.2396435441987
 21
82.32500048207821
 31
0.0
  0
LINE
  5
1C9
330
52
100
AcDbEntity
  8
0
  6
Continuous
 62
     7
100
AcDbLine
 10
-9.2396435441987
 20
82.32500048207821
 30
0.0
 11
-9.2396435441987
 21
80.82500048207821
 31
0.0
  0
LINE
  5
1CA
330
52
100
AcDbEntity
  8
0
  6
Continuous
 62
     7
100
AcDbLine
 10
-9.2396435441987
 20
71.32500048207821
 30
0.0
 11
-9.2396435441987
 21
80.82500048207821
 31
0.0
  0
LINE
  5
1CB
330
52
100
AcDbEntity
  8
0
  6
Continuous
 62
     2
100
AcDbLine
 10
-11.2396435441987
 20
80.82500048207821
 30
0.0
 11
-9.2396435441987
 21
80.82500048207821
 31
0.0
  0
LINE
  5
1CC
330
52
100
AcDbEntity
  8
0
  6
Continuous
 62
     7
100
AcDbLine
 10
-9.98747754419869
 20
71.32500048207821
 30
0.0
 11
-9.98747754419887
 21
66.575000482077
 31
0.0
  0
LINE
  5
1CD
330
52
100
AcDbEntity
  8
0
  6
Continuous
 62
     7
100
AcDbLine
 10
-10.48747754419869
 20
71.32500048207821
 30
0.0
 11
-10.48747754419887
 21
66.575000482077
 31
0.0
  0
LINE
  5
1CE
330
52
100
AcDbEntity
  8
0
  6
Continuous
 62
     7
100
AcDbLine
 10
-9.98747754419869
 20
71.32500048207821
 30
0.0
 11
-10.48747754419869
 21
71.32500048207821
 31
0.0
  0
LINE
  5
1CF
330
52
100
AcDbEntity
  8
0
  6
Continuous
 62
     7
100
AcDbLine
 10
-10.48747754419869
 20
71.32500048207821
 30
0.0
 11
-11.2396435441987
 21
71.32500048207821
 31
0.0
  0
LINE
  5
1D0
330
52
100
AcDbEntity
  8
0
  6
Continuous
 62
     7
100
AcDbLine
 10
-9.2396435441987
 20
71.32500048207821
 30
0.0
 11
-9.98747754419869
 21
71.32500048207821
 31
0.0
  0
LINE
  5
1D1
330
52
100
AcDbEntity
  8
0
  6
Continuous
 62
     7
100
AcDbLine
 10
-10.52184022952948
 20
65.3014018291049
 30
0.0
 11
-11.27041732211503
 21
61.05601017334226
 31
0.0
  0
ARC
  5
1D2
330
52
100
AcDbEntity
  8
0
  6
Continuous
 62
     7
100
AcDbCircle
 10
-10.22639790362582
 20
65.24930737580482
 30
0.0
 40
0.800000000000012
100
AcDbArc
 50
135.7545788335129
 51
169.9999999999995
  0
ARC
  5
1D3
330
52
100
AcDbEntity
  8
0
  6
Continuous
 62
     7
100
AcDbCircle
 10
-11.58747754419887
 20
66.575000482077
 30
0.0
 40
1.100000000000003
100
AcDbArc
 50
315.7545788335137
 51
0.0
  0
ARC
  5
1D4
330
52
100
AcDbEntity
  8
0
  6
Continuous
 62
     7
100
AcDbCircle
 10
-11.58747754419887
 20
66.575000482077
 30
0.0
 40
1.600000000000004
100
AcDbArc
 50
315.7545788335137
 51
0.0
  0
ARC
  5
1D5
330
52
100
AcDbEntity
  8
0
  6
Continuous
 62
     7
100
AcDbCircle
 10
-10.22639790362582
 20
65.24930737580482
 30
0.0
 40
0.3000000000000103
100
AcDbArc
 50
135.7545788335121
 51
169.9999999999987
  0
ENDBLK
  5
54
330
52
100
AcDbEntity
  8
0
100
AcDbBlockEnd
  0
BLOCK
  5
57
330
55
100
AcDbEntity
  8
0
100
AcDbBlockBegin
  2
Back1
 70
     0
 10
-10.60976248991568
 20
71.07500016681803
 30
0.0
  3
Back1
  1

  0
INSERT
  5
56
330
55
100
AcDbEntity
  8
0
100
AcDbBlockReference
  2
ESB_2-MZDB-select__1
 10
-11.9798814207048
 20
59.8250004820782
 30
0.0
  0
MTEXT
  5
1D6
330
55
100
AcDbEntity
  8
1
 62
     6
100
AcDbMText
 10
-10.60976248991568
 20
57.32499980919016
 30
0.0
 40
2.5
 41
0.0
 71
     2
 72
     1
  1
 
  7
CONVERTER_11
 73
     1
 44
1.32052821128451
  0
ENDBLK
  5
58
330
55
100
AcDbEntity
  8
0
100
AcDbBlockEnd
  0
BLOCK
  5
5A
330
59
100
AcDbEntity
  8
0
100
AcDbBlockBegin
  2
ESB_2-MZDB-select__2
 70
     0
 10
-54.37011894559706
 20
59.82500048207824
 30
0.0
  3
ESB_2-MZDB-select__2
  1

  0
LINE
  5
1D7
330
59
100
AcDbEntity
  8
0
  6
Continuous
 62
     7
100
AcDbLine
 10
-51.84694129117463
 20
61.14283426217717
 30
0.0
 11
-51.62988106909096
 21
59.91182457091171
 31
0.0
  0
LINE
  5
1D8
330
59
100
AcDbEntity
  8
0
  6
Continuous
 62
     7
100
AcDbLine
 10
-52.12228494559706
 20
59.82500048207824
 30
0.0
 11
-51.62988106909096
 21
59.91182457091171
 31
0.0
  0
LINE
  5
1D9
330
59
100
AcDbEntity
  8
0
  6
Continuous
 62
     2
100
AcDbLine
 10
-52.33934516768073
 20
61.05601017334369
 30
0.0
 11
-51.84694129117463
 21
61.14283426217717
 31
0.0
  0
LINE
  5
1DA
330
59
100
AcDbEntity
  8
0
  6
Continuous
 62
     7
100
AcDbLine
 10
-51.84694129117463
 20
61.14283426217717
 30
0.0
 11
-52.59551838376017
 21
65.38822591793982
 31
0.0
  0
LINE
  5
1DB
330
59
100
AcDbEntity
  8
0
  6
Continuous
 62
     7
100
AcDbLine
 10
-53.62228494559707
 20
71.32500048207825
 30
0.0
 11
-53.62228494559689
 21
66.57500048207845
 31
0.0
  0
LINE
  5
1DC
330
59
100
AcDbEntity
  8
0
  6
Continuous
 62
     7
100
AcDbLine
 10
-53.12228494559688
 20
71.32500048207825
 30
0.0
 11
-53.12228494559687
 21
66.57500048207845
 31
0.0
  0
LINE
  5
1DD
330
59
100
AcDbEntity
  8
0
  6
Continuous
 62
     7
100
AcDbLine
 10
-52.37011894559706
 20
82.32500048207825
 30
0.0
 11
-52.37011894559706
 21
80.82500048207825
 31
0.0
  0
LINE
  5
1DE
330
59
100
AcDbEntity
  8
0
  6
Continuous
 62
     7
100
AcDbLine
 10
-52.37011894559706
 20
80.82500048207825
 30
0.0
 11
-52.37011894559706
 21
71.32500048207825
 31
0.0
  0
LINE
  5
1DF
330
59
100
AcDbEntity
  8
0
  6
Continuous
 62
     7
100
AcDbLine
 10
-54.37011894559706
 20
80.82500048207825
 30
0.0
 11
-54.37011894559706
 21
71.32500048207825
 31
0.0
  0
LINE
  5
1E0
330
59
100
AcDbEntity
  8
0
  6
Continuous
 62
     7
100
AcDbLine
 10
-53.62228494559707
 20
71.32500048207825
 30
0.0
 11
-53.12228494559688
 21
71.32500048207825
 31
0.0
  0
LINE
  5
1E1
330
59
100
AcDbEntity
  8
0
  6
Continuous
 62
     7
100
AcDbLine
 10
-53.12228494559688
 20
71.32500048207825
 30
0.0
 11
-52.37011894559706
 21
71.32500048207825
 31
0.0
  0
LINE
  5
1E2
330
59
100
AcDbEntity
  8
0
  6
Continuous
 62
     7
100
AcDbLine
 10
-54.37011894559706
 20
71.32500048207825
 30
0.0
 11
-53.62228494559707
 21
71.32500048207825
 31
0.0
  0
LINE
  5
1E3
330
59
100
AcDbEntity
  8
0
  6
Continuous
 62
     7
100
AcDbLine
 10
-54.37011894559706
 20
82.32500048207825
 30
0.0
 11
-52.37011894559706
 21
82.32500048207825
 31
0.0
  0
LINE
  5
1E4
330
59
100
AcDbEntity
  8
0
  6
Continuous
 62
     7
100
AcDbLine
 10
-54.37011894559706
 20
82.32500048207825
 30
0.0
 11
-54.37011894559706
 21
80.82500048207825
 31
0.0
  0
LINE
  5
1E5
330
59
100
AcDbEntity
  8
0
  6
Continuous
 62
     2
100
AcDbLine
 10
-54.37011894559706
 20
80.82500048207825
 30
0.0
 11
-52.37011894559706
 21
80.82500048207825
 31
0.0
  0
LINE
  5
1E6
330
59
100
AcDbEntity
  8
0
  6
Continuous
 62
     7
100
AcDbLine
 10
-52.33934516768073
 20
61.05601017334369
 30
0.0
 11
-52.12228494559706
 21
59.82500048207824
 31
0.0
  0
LINE
  5
1E7
330
59
100
AcDbEntity
  8
0
  6
Continuous
 62
     7
100
AcDbLine
 10
-52.33934516768073
 20
61.05601017334369
 30
0.0
 11
-53.08792226026627
 21
65.30140182910635
 31
0.0
  0
ARC
  5
1E8
330
59
100
AcDbEntity
  8
0
  6
Continuous
 62
     7
100
AcDbCircle
 10
-52.02228494559689
 20
66.57500048207845
 30
0.0
 40
1.09999999999998
100
AcDbArc
 50
180.0
 51
224.2454211664867
  0
ARC
  5
1E9
330
59
100
AcDbEntity
  8
0
  6
Continuous
 62
     7
100
AcDbCircle
 10
-53.38336458616993
 20
65.24930737580627
 30
0.0
 40
0.3000000000000032
100
AcDbArc
 50
10.00000000000119
 51
44.24542116648716
  0
ARC
  5
1EA
330
59
100
AcDbEntity
  8
0
  6
Continuous
 62
     7
100
AcDbCircle
 10
-53.38336458616993
 20
65.24930737580627
 30
0.0
 40
0.7999999999999952
100
AcDbArc
 50
10.00000000000067
 51
44.2454211664868
  0
ARC
  5
1EB
330
59
100
AcDbEntity
  8
0
  6
Continuous
 62
     7
100
AcDbCircle
 10
-52.02228494559689
 20
66.57500048207845
 30
0.0
 40
1.600000000000001
100
AcDbArc
 50
180.0
 51
224.2454211664866
  0
ENDBLK
  5
5B
330
59
100
AcDbEntity
  8
0
100
AcDbBlockEnd
  0
BLOCK
  5
5E
330
5C
100
AcDbEntity
  8
0
100
AcDbBlockBegin
  2
Front1
 70
     0
 10
-52.99999999988008
 20
71.07500016681807
 30
0.0
  3
Front1
  1

  0
INSERT
  5
5D
330
5C
100
AcDbEntity
  8
0
100
AcDbBlockReference
  2
ESB_2-MZDB-select__2
 10
-54.37011894559706
 20
59.82500048207824
 30
0.0
  0
MTEXT
  5
1EC
330
5C
100
AcDbEntity
  8
1
 62
     6
100
AcDbMText
 10
-52.99999999988
 20
57.32499980919016
 30
0.0
 40
2.5
 41
0.0
 71
     2
 72
     1
  1
 
  7
CONVERTER_11
 73
     1
 44
1.32052821128451
  0
DIMENSION
  5
1F7
330
5C
100
AcDbEntity
  8
1
100
AcDbDimension
  2
*D17
 10
-59.37011894559706
 20
82.32500048207825
 30
0.0
 11
-61.08261894559706
 21
70.917100224079
 31
0.0
 70
    32
  1
<>
 71
     5
 42
-1.0
 53
90.0
  3
ME10_DIM_10
100
AcDbAlignedDimension
 13
-52.12228494559706
 23
59.82500048207824
 33
0.0
 14
-54.37011894559706
 24
82.32500048207825
 34
0.0
 50
90.0
100
AcDbRotatedDimension
  0
DIMENSION
  5
204
330
5C
100
AcDbEntity
  8
1
100
AcDbDimension
  2
*D18
 10
-54.37011894559706
 20
52.3358478550055
 30
0.0
 11
-59.151586136622
 21
54.0483478550055
 31
0.0
 70
    32
  1
<>
 71
     5
 42
-1.0
 53
0.00013888888889
  3
ME10_DIM_11
100
AcDbAlignedDimension
 13
-51.62988106909096
 23
59.91182457091171
 33
0.0
 14
-54.37011894559706
 24
71.32500048207825
 34
0.0
100
AcDbRotatedDimension
  0
ENDBLK
  5
5F
330
5C
100
AcDbEntity
  8
0
100
AcDbBlockEnd
  0
BLOCK
  5
61
330
60
100
AcDbEntity
  8
0
100
AcDbBlockBegin
  2
ESB_2-MZDB-select__3
 70
     0
 10
-14.20882012259727
 20
28.52405133183455
 30
0.0
  3
ESB_2-MZDB-select__3
  1

  0
LINE
  5
205
330
60
100
AcDbEntity
  8
0
  6
Continuous
 62
     2
100
AcDbLine
 10
-13.45882012259719
 20
48.64554830010252
 30
0.0
 11
-11.72676931502834
 21
48.1455483001025
 31
0.0
  0
LINE
  5
206
330
60
100
AcDbEntity
  8
0
  6
Continuous
 62
     2
100
AcDbLine
 10
-8.40176931502815
 20
51.02508276768558
 30
0.0
 11
-10.13382012259699
 21
51.5250827676856
 31
0.0
  0
LINE
  5
207
330
60
100
AcDbEntity
  8
0
  6
Continuous
 62
     7
100
AcDbLine
 10
-8.40176931502815
 20
51.02508276768558
 30
0.0
 11
-11.72676931502834
 21
48.1455483001025
 31
0.0
  0
LINE
  5
208
330
60
100
AcDbEntity
  8
0
  6
Continuous
 62
     7
100
AcDbLine
 10
-7.98574416785922
 20
51.16719804625468
 30
0.0
 11
-9.71779497542806
 21
51.6671980462547
 31
0.0
  0
LINE
  5
209
330
60
100
AcDbEntity
  8
0
  6
Continuous
 62
     7
100
AcDbLine
 10
-14.20882012259724
 20
46.69699114158756
 30
0.0
 11
-14.20882012259727
 21
38.46974980563527
 31
0.0
  0
LINE
  5
20A
330
60
100
AcDbEntity
  8
0
  6
Continuous
 62
     7
100
AcDbLine
 10
-13.3111768807825
 20
38.21062252198626
 30
0.0
 11
-13.31117688078271
 21
34.38567698860595
 31
0.0
  0
LINE
  5
20B
330
60
100
AcDbEntity
  8
0
  6
Continuous
 62
     7
100
AcDbLine
 10
-7.44868417560578
 20
32.983007002352
 30
0.0
 11
-8.09697095447558
 21
36.84676829840366
 31
0.0
  0
LINE
  5
20C
330
60
100
AcDbEntity
  8
0
  6
Continuous
 62
     7
100
AcDbLine
 10
-8.63967564276647
 20
31.24746514163725
 30
0.0
 11
-8.21324137679025
 21
31.19955603910094
 31
0.0
  0
LINE
  5
20D
330
60
100
AcDbEntity
  8
0
  6
Continuous
 62
     7
100
AcDbLine
 10
-10.23617688078232
 20
40.87365063862325
 30
0.0
 11
-10.23617688078256
 21
37.04870510524206
 31
0.0
  0
LINE
  5
20E
330
60
100
AcDbEntity
  8
0
  6
Continuous
 62
     7
100
AcDbLine
 10
-8.55316417888993
 20
41.3676915279499
 30
0.0
 11
-8.55316417889026
 21
38.00623685997219
 31
0.0
  0
LINE
  5
20F
330
60
100
AcDbEntity
  8
0
  6
Continuous
 62
     7
100
AcDbLine
 10
-10.72676931502832
 20
41.01527247561041
 30
0.0
 11
-9.40176931502825
 21
40.63277792227224
 31
0.0
  0
LINE
  5
210
330
60
100
AcDbEntity
  8
0
  6
Continuous
 62
     7
100
AcDbLine
 10
-9.40176931502825
 20
40.63277792227224
 30
0.0
 11
-7.65176931502816
 21
42.14832237889492
 31
0.0
  0
LINE
  5
211
330
60
100
AcDbEntity
  8
0
  6
Continuous
 62
     2
100
AcDbLine
 10
-9.80316417889033
 20
36.92370510524206
 30
0.0
 11
-8.55316417889026
 21
38.00623685997219
 31
0.0
  0
LINE
  5
212
330
60
100
AcDbEntity
  8
0
  6
Continuous
 62
     2
100
AcDbLine
 10
-9.53295860306492
 20
36.18102331720969
 30
0.0
 11
-8.28295860306484
 21
37.26355507193983
 31
0.0
  0
LINE
  5
213
330
60
100
AcDbEntity
  8
0
  6
Continuous
 62
     2
100
AcDbLine
 10
-9.34697095447565
 20
35.76423654367353
 30
0.0
 11
-8.09697095447558
 21
36.84676829840366
 31
0.0
  0
LINE
  5
214
330
60
100
AcDbEntity
  8
0
  6
Continuous
 62
     2
100
AcDbLine
 10
-9.12511844158207
 20
31.94838435015817
 30
0.0
 11
-8.69868417560586
 21
31.90047524762186
 31
0.0
  0
LINE
  5
215
330
60
100
AcDbEntity
  8
0
  6
Continuous
 62
     7
100
AcDbLine
 10
-8.69868417560586
 20
31.90047524762186
 30
0.0
 11
-9.34697095447565
 21
35.76423654367353
 31
0.0
  0
LINE
  5
216
330
60
100
AcDbEntity
  8
0
  6
Continuous
 62
     7
100
AcDbLine
 10
-9.77340522045187
 20
35.81214564620983
 30
0.0
 11
-9.12511844158207
 21
31.94838435015817
 31
0.0
  0
LINE
  5
217
330
60
100
AcDbEntity
  8
0
  6
Continuous
 62
     7
100
AcDbLine
 10
-11.6281641788901
 20
38.70466341131292
 30
0.0
 11
-11.62816417889042
 21
35.34320874333607
 31
0.0
  0
LINE
  5
218
330
60
100
AcDbEntity
  8
0
  6
Continuous
 62
     2
100
AcDbLine
 10
-12.60795860306509
 20
33.51799520057358
 30
0.0
 11
-11.35795860306503
 21
34.60052695530371
 31
0.0
  0
LINE
  5
219
330
60
100
AcDbEntity
  8
0
  6
Continuous
 62
     2
100
AcDbLine
 10
-12.42197095447584
 20
33.10120842703741
 30
0.0
 11
-11.17197095447576
 21
34.18374018176754
 31
0.0
  0
LINE
  5
21A
330
60
100
AcDbEntity
  8
0
  6
Continuous
 62
     2
100
AcDbLine
 10
-12.20011844158226
 20
29.28535623352204
 30
0.0
 11
-11.77368417560604
 21
29.23744713098574
 31
0.0
  0
LINE
  5
21B
330
60
100
AcDbEntity
  8
0
  6
Continuous
 62
     7
100
AcDbLine
 10
-11.77368417560604
 20
29.23744713098574
 30
0.0
 11
-12.42197095447584
 21
33.10120842703741
 31
0.0
  0
LINE
  5
21C
330
60
100
AcDbEntity
  8
0
  6
Continuous
 62
     7
100
AcDbLine
 10
-12.20011844158226
 20
29.28535623352204
 30
0.0
 11
-12.84840522045205
 21
33.14911752957372
 31
0.0
  0
LINE
  5
21D
330
60
100
AcDbEntity
  8
0
  6
Continuous
 62
     7
100
AcDbLine
 10
-11.71467564276664
 20
28.58443702500112
 30
0.0
 11
-11.28824137679042
 21
28.53652792246482
 31
0.0
  0
LINE
  5
21E
330
60
100
AcDbEntity
  8
0
  6
Continuous
 62
     7
100
AcDbLine
 10
-10.72676931502834
 20
39.48529426225794
 30
0.0
 11
-10.72676931502831
 21
42.08337047361128
 31
0.0
  0
LINE
  5
21F
330
60
100
AcDbEntity
  8
0
  6
Continuous
 62
     7
100
AcDbLine
 10
-10.52368417560597
 20
30.31997888571587
 30
0.0
 11
-11.17197095447576
 21
34.18374018176754
 31
0.0
  0
LINE
  5
220
330
60
100
AcDbEntity
  8
0
  6
Continuous
 62
     7
100
AcDbLine
 10
-12.47676931502843
 20
37.96974980563526
 30
0.0
 11
-10.72676931502834
 21
39.48529426225794
 31
0.0
  0
LINE
  5
221
330
60
100
AcDbEntity
  8
0
  6
Continuous
 62
     7
100
AcDbLine
 10
-14.20882012259727
 20
38.46974980563527
 30
0.0
 11
-12.47676931502843
 21
37.96974980563526
 31
0.0
  0
LINE
  5
222
330
60
100
AcDbEntity
  8
0
  6
Continuous
 62
     7
100
AcDbLine
 10
-9.80316417888995
 20
40.74865063862319
 30
0.0
 11
-9.80316417889033
 21
36.92370510524206
 31
0.0
  0
LINE
  5
223
330
60
100
AcDbEntity
  8
0
  6
Continuous
 62
     7
100
AcDbLine
 10
-12.47676931502839
 20
46.19699114158754
 30
0.0
 11
-12.47676931502843
 21
37.96974980563526
 31
0.0
  0
LINE
  5
224
330
60
100
AcDbEntity
  8
0
  6
Continuous
 62
     7
100
AcDbLine
 10
-12.87816417889012
 20
38.08562252198621
 30
0.0
 11
-12.8781641788905
 21
34.26067698860595
 31
0.0
  0
LINE
  5
225
330
60
100
AcDbEntity
  8
0
  6
Continuous
 62
     2
100
AcDbLine
 10
-12.8781641788905
 20
34.26067698860595
 30
0.0
 11
-11.62816417889042
 21
35.34320874333607
 31
0.0
  0
LINE
  5
226
330
60
100
AcDbEntity
  8
0
  6
Continuous
 62
     2
100
AcDbLine
 10
-14.20882012259724
 20
46.69699114158756
 30
0.0
 11
-12.47676931502839
 21
46.19699114158754
 31
0.0
  0
LINE
  5
227
330
60
100
AcDbEntity
  8
0
  6
Continuous
 62
     7
100
AcDbLine
 10
-9.40176931502824
 20
43.23085413362559
 30
0.0
 11
-9.40176931502825
 21
40.63277792227224
 31
0.0
  0
LINE
  5
228
330
60
100
AcDbEntity
  8
0
  6
Continuous
 62
     7
100
AcDbLine
 10
-10.72676931502831
 20
42.08337047361128
 30
0.0
 11
-9.40176931502824
 21
43.23085413362559
 31
0.0
  0
LINE
  5
229
330
60
100
AcDbEntity
  8
0
  6
Continuous
 62
     7
100
AcDbLine
 10
-7.65176931502816
 20
42.14832237889492
 30
0.0
 11
-7.65176931502812
 21
50.37556371484719
 31
0.0
  0
LINE
  5
22A
330
60
100
AcDbEntity
  8
0
  6
Continuous
 62
     7
100
AcDbLine
 10
-10.13382012259699
 20
51.5250827676856
 30
0.0
 11
-13.45882012259719
 21
48.64554830010252
 31
0.0
  0
SPLINE
  5
22B
330
60
100
AcDbEntity
  8
0
  6
Continuous
 62
     7
100
AcDbSpline
210
0.0
220
0.0
230
1.0
 70
     8
 71
     3
 72
    11
 73
     7
 74
     5
 42
0.000000001
 43
0.0000000001
 44
0.00000001
 40
0.0
 40
0.0
 40
0.0
 40
0.0
 40
0.1642822065647008
 40
0.3632574842566884
 40
0.6118818347380278
 40
0.9091995671592052
 40
0.9091995671592052
 40
0.9091995671592052
 40
0.9091995671592052
 10
-7.985744167859224
 20
51.16719804625468
 30
0.0
 10
-7.935835102503817
 20
51.14200900157291
 30
0.0
 10
-7.825477197532416
 20
51.08631148407351
 30
0.0
 10
-7.725521784075285
 20
50.89752325902911
 30
0.0
 10
-7.66178413776699
 20
50.65782434062424
 30
0.0
 10
-7.655300352653144
 20
50.47508356392765
 30
0.0
 10
-7.651769315028115
 20
50.37556371484719
 30
0.0
 11
-7.985744167859224
 21
51.16719804625468
 31
0.0
 11
-7.846451378809093
 21
51.08009946052594
 31
0.0
 11
-7.740513365952165
 21
50.91167053804389
 31
0.0
 11
-7.674293687868733
 21
50.67202700414506
 31
0.0
 11
-7.651769315028115
 21
50.37556371484719
 31
0.0
  0
SPLINE
  5
22C
330
60
100
AcDbEntity
  8
0
  6
Continuous
 62
     7
100
AcDbSpline
210
0.0
220
0.0
230
1.0
 70
     8
 71
     3
 72
     9
 73
     5
 74
     3
 42
0.000000001
 43
0.0000000001
 44
0.00000001
 40
0.0
 40
0.0
 40
0.0
 40
0.0
 40
0.2545326642817791
 40
0.4534532839633733
 40
0.4534532839633733
 40
0.4534532839633733
 40
0.4534532839633733
 10
-8.401769315028154
 20
51.02508276768558
 30
0.0
 10
-8.332775058147016
 20
51.08048356060951
 30
0.0
 10
-8.209860876170715
 20
51.17918078306724
 30
0.0
 10
-8.05408141249234
 20
51.17085180558866
 30
0.0
 10
-7.985744167859224
 20
51.16719804625468
 30
0.0
 11
-8.401769315028154
 21
51.02508276768558
 31
0.0
 11
-8.184431319762924
 21
51.1575632351416
 31
0.0
 11
-7.985744167859224
 21
51.16719804625468
 31
0.0
  0
SPLINE
  5
22D
330
60
100
AcDbEntity
  8
0
  6
Continuous
 62
     7
100
AcDbSpline
210
0.0
220
0.0
230
1.0
 70
     8
 71
     3
 72
     9
 73
     5
 74
     3
 42
0.000000001
 43
0.0000000001
 44
0.00000001
 40
0.0
 40
0.0
 40
0.0
 40
0.0
 40
0.2545326642817657
 40
0.4534532839633637
 40
0.4534532839633637
 40
0.4534532839633637
 40
0.4534532839633637
 10
-10.13382012259699
 20
51.5250827676856
 30
0.0
 10
-10.06482586571585
 20
51.58048356060953
 30
0.0
 10
-9.941911683739555
 20
51.67918078306725
 30
0.0
 10
-9.786132220061182
 20
51.67085180558867
 30
0.0
 10
-9.717794975428063
 20
51.6671980462547
 30
0.0
 11
-10.13382012259699
 21
51.5250827676856
 31
0.0
 11
-9.916482127331767
 21
51.65756323514161
 31
0.0
 11
-9.717794975428063
 21
51.6671980462547
 31
0.0
  0
SPLINE
  5
22E
330
60
100
AcDbEntity
  8
0
  6
Continuous
 62
     7
100
AcDbSpline
210
0.0
220
0.0
230
1.0
 70
     8
 71
     3
 72
    13
 73
     9
 74
     7
 42
0.000000001
 43
0.0000000001
 44
0.00000001
 40
0.0
 40
0.0
 40
0.0
 40
0.0
 40
0.2877188436350858
 40
0.6264803977368187
 40
1.001156224653218
 40
1.39203173533017
 40
1.777572597994858
 40
2.13683041528683
 40
2.13683041528683
 40
2.13683041528683
 40
2.13683041528683
 10
-13.45882012259719
 20
48.64554830010252
 30
0.0
 10
-13.5262731410997
 20
48.57696545261496
 30
0.0
 10
-13.67314565755555
 20
48.42763281931352
 30
0.0
 10
-13.84538996677018
 20
48.13880774275088
 30
0.0
 10
-13.99837126262753
 20
47.80362228684337
 30
0.0
 10
-14.11403589576822
 20
47.43697640615559
 30
0.0
 10
-14.19218029783234
 20
47.06515351510847
 30
0.0
 10
-14.2034055612491
 20
46.81679045571457
 30
0.0
 10
-14.20882012259724
 20
46.69699114158756
 30
0.0
 11
-13.45882012259719
 21
48.64554830010252
 31
0.0
 11
-13.6529343546721
 21
48.4331764592895
 31
0.0
 11
-13.8338201225972
 21
48.14675066800671
 31
0.0
 11
-13.98915006709806
 21
47.80578939875121
 31
0.0
 11
-14.10833917543555
 21
47.43352924726422
 31
0.0
 11
-14.18326429917299
 21
47.05533884631353
 31
0.0
 11
-14.20882012259724
 21
46.69699114158756
 31
0.0
  0
SPLINE
  5
22F
330
60
100
AcDbEntity
  8
0
  6
Continuous
 62
     7
100
AcDbSpline
210
0.0
220
0.0
230
1.0
 70
     8
 71
     3
 72
    11
 73
     7
 74
     5
 42
0.000000001
 43
0.0000000001
 44
0.00000001
 40
0.0
 40
0.0
 40
0.0
 40
0.0
 40
0.2744899208811045
 40
0.5627513567932855
 40
0.8620025634690277
 40
1.168211428248553
 40
1.168211428248553
 40
1.168211428248553
 40
1.168211428248553
 10
-13.31117688078271
 20
34.38567698860595
 30
0.0
 10
-13.305947520303
 20
34.29406444365821
 30
0.0
 10
-13.29522642056896
 20
34.10624303522268
 30
0.0
 10
-13.21407339770184
 20
33.82857218982234
 30
0.0
 10
-13.0923817841246
 20
33.55519260279925
 30
0.0
 10
-12.97667088951156
 20
33.3893080002404
 30
0.0
 10
-12.91815058867303
 20
33.30541256964978
 30
0.0
 11
-13.31117688078271
 21
34.38567698860595
 31
0.0
 11
-13.28543479587418
 21
34.1123967984411
 31
0.0
 11
-13.20916522993702
 21
33.83440829181037
 31
0.0
 11
-13.08520178798685
 21
33.56204024911161
 31
0.0
 11
-12.91815058867303
 21
33.30541256964978
 31
0.0
  0
SPLINE
  5
230
330
60
100
AcDbEntity
  8
0
  6
Continuous
 62
     7
100
AcDbSpline
210
0.0
220
0.0
230
1.0
 70
     8
 71
     3
 72
    15
 73
    11
 74
     9
 42
0.000000001
 43
0.0000000001
 44
0.00000001
 40
0.0
 40
0.0
 40
0.0
 40
0.0
 40
0.1700708415954026
 40
0.366991303213381
 40
0.6033891830976119
 40
0.8785743179580696
 40
1.183646135089514
 40
1.505098321648488
 40
1.827287848294154
 40
2.134480419945683
 40
2.134480419945683
 40
2.134480419945683
 40
2.134480419945683
 10
-8.213241376790254
 20
31.19955603910094
 30
0.0
 10
-8.155598623935948
 20
31.2024297168067
 30
0.0
 10
-8.031212878763395
 20
31.20863076203131
 30
0.0
 10
-7.860843624084815
 20
31.33110934276061
 30
0.0
 10
-7.710306872808991
 20
31.5132995106444
 30
0.0
 10
-7.583782507209131
 20
31.75676780777837
 30
0.0
 10
-7.488476213937034
 20
32.04279265113088
 30
0.0
 10
-7.431476702241992
 20
32.35459900680313
 30
0.0
 10
-7.411755811963917
 20
32.6724695796964
 30
0.0
 10
-7.436571824733242
 20
32.88115202764083
 30
0.0
 10
-7.448684175605784
 20
32.983007002352
 30
0.0
 11
-8.213241376790254
 21
31.19955603910094
 31
0.0
 11
-8.044772409065295
 21
31.2228433916118
 31
0.0
 11
-7.878243998759563
 21
31.32794314518975
 31
0.0
 11
-7.724833723148111
 21
31.50780210210535
 31
0.0
 11
-7.594838285670679
 21
31.75034703489904
 31
0.0
 11
-7.496983449902352
 21
32.03929901125437
 31
0.0
 11
-7.43783675984227
 21
32.35526289739791
 31
0.0
 11
-7.421368766555765
 21
32.67703128625907
 31
0.0
 11
-7.448684175605784
 21
32.983007002352
 31
0.0
  0
SPLINE
  5
231
330
60
100
AcDbEntity
  8
0
  6
Continuous
 62
     7
100
AcDbSpline
210
0.0
220
0.0
230
1.0
 70
     8
 71
     3
 72
    11
 73
     7
 74
     5
 42
0.000000001
 43
0.0000000001
 44
0.00000001
 40
0.0
 40
0.0
 40
0.0
 40
0.0
 40
0.2843631423407313
 40
0.5285741352813841
 40
0.7312723286542667
 40
0.905414787241768
 40
0.905414787241768
 40
0.905414787241768
 40
0.905414787241768
 10
-8.698684175605855
 20
31.90047524762186
 30
0.0
 10
-8.678937551449266
 20
31.80728032832496
 30
0.0
 10
-8.64223252060458
 20
31.63404963983838
 30
0.0
 10
-8.533696637513398
 20
31.41499627438529
 30
0.0
 10
-8.393219361383565
 20
31.25087855080474
 30
0.0
 10
-8.270124807699657
 20
31.21577691015047
 30
0.0
 10
-8.213241376790254
 20
31.19955603910094
 30
0.0
 11
-8.698684175605855
 21
31.90047524762186
 31
0.0
 11
-8.627361923349216
 21
31.62520169266676
 31
0.0
 11
-8.517156800127884
 21
31.40727087455434
 31
0.0
 11
-8.375807630484964
 21
31.2619884854987
 31
0.0
 11
-8.213241376790254
 21
31.19955603910094
 31
0.0
  0
SPLINE
  5
232
330
60
100
AcDbEntity
  8
0
  6
Continuous
 62
     7
100
AcDbSpline
210
0.0
220
0.0
230
1.0
 70
     8
 71
     3
 72
    11
 73
     7
 74
     5
 42
0.000000001
 43
0.0000000001
 44
0.00000001
 40
0.0
 40
0.0
 40
0.0
 40
0.0
 40
0.2843631423407412
 40
0.5285741352813995
 40
0.7312723286542808
 40
0.9054147872417746
 40
0.9054147872417746
 40
0.9054147872417746
 40
0.9054147872417746
 10
-9.125118441582075
 20
31.94838435015817
 30
0.0
 10
-9.105371817425484
 20
31.85518943086127
 30
0.0
 10
-9.068666786580806
 20
31.6819587423747
 30
0.0
 10
-8.960130903489611
 20
31.46290537692158
 30
0.0
 10
-8.819653627359783
 20
31.29878765334105
 30
0.0
 10
-8.696559073675875
 20
31.26368601268678
 30
0.0
 10
-8.639675642766473
 20
31.24746514163725
 30
0.0
 11
-9.125118441582075
 21
31.94838435015817
 31
0.0
 11
-9.053796189325437
 21
31.67311079520306
 31
0.0
 11
-8.9435910661041
 21
31.45517997709063
 31
0.0
 11
-8.802241896461178
 21
31.309897588035
 31
0.0
 11
-8.639675642766473
 21
31.24746514163725
 31
0.0
  0
SPLINE
  5
233
330
60
100
AcDbEntity
  8
0
  6
Continuous
 62
     7
100
AcDbSpline
210
0.0
220
0.0
230
1.0
 70
     8
 71
     3
 72
     9
 73
     5
 74
     3
 42
0.000000001
 43
0.0000000001
 44
0.00000001
 40
0.0
 40
0.0
 40
0.0
 40
0.0
 40
0.0841231681943307
 40
0.1723850434343918
 40
0.1723850434343918
 40
0.1723850434343918
 40
0.1723850434343918
 10
-9.773405220451874
 20
35.81214564620983
 30
0.0
 10
-9.78011798013434
 20
35.8396205522781
 30
0.0
 10
-9.793873773622089
 20
35.89592207302844
 30
0.0
 10
-9.826464162162143
 20
35.94388398700669
 30
0.0
 10
-9.843150588672852
 20
35.9684406862859
 30
0.0
 11
-9.773405220451874
 21
35.81214564620983
 31
0.0
 11
-9.798028776091732
 21
35.89258436907227
 31
0.0
 11
-9.843150588672852
 21
35.9684406862859
 31
0.0
  0
SPLINE
  5
234
330
60
100
AcDbEntity
  8
0
  6
Continuous
 62
     7
100
AcDbSpline
210
0.0
220
0.0
230
1.0
 70
     8
 71
     3
 72
     9
 73
     5
 74
     3
 42
0.000000001
 43
0.0000000001
 44
0.00000001
 40
0.0
 40
0.0
 40
0.0
 40
0.0
 40
0.2243284505096836
 40
0.4596934531413565
 40
0.4596934531413565
 40
0.4596934531413565
 40
0.4596934531413565
 10
-8.096970954475584
 20
36.84676829840366
 30
0.0
 10
-8.11487164712107
 20
36.92003471523614
 30
0.0
 10
-8.151553732503318
 20
37.07017211662148
 30
0.0
 10
-8.238461465326445
 20
37.19807053997451
 30
0.0
 10
-8.282958603064845
 20
37.26355507193983
 30
0.0
 11
-8.096970954475584
 21
36.84676829840366
 31
0.0
 11
-8.162633769515189
 21
37.06127155937013
 31
0.0
 11
-8.282958603064845
 21
37.26355507193983
 31
0.0
  0
SPLINE
  5
235
330
60
100
AcDbEntity
  8
0
  6
Continuous
 62
     7
100
AcDbSpline
210
0.0
220
0.0
230
1.0
 70
     8
 71
     3
 72
    11
 73
     7
 74
     5
 42
0.000000001
 43
0.0000000001
 44
0.00000001
 40
0.0
 40
0.0
 40
0.0
 40
0.0
 40
0.188711820260416
 40
0.3868915568684969
 40
0.5926267609741541
 40
0.8031453554138569
 40
0.8031453554138569
 40
0.8031453554138569
 40
0.8031453554138569
 10
-9.803164178890334
 20
36.92370510524206
 30
0.0
 10
-9.79956899356711
 20
36.86072148070575
 30
0.0
 10
-9.792198232835473
 20
36.73159426320224
 30
0.0
 10
-9.736405532099397
 20
36.54069555700467
 30
0.0
 10
-9.652742545884426
 20
36.35274709229843
 30
0.0
 10
-9.57319130987302
 20
36.23870142571438
 30
0.0
 10
-9.532958603064923
 20
36.18102331720969
 30
0.0
 11
-9.803164178890334
 21
36.92370510524206
 31
0.0
 11
-9.785466495515715
 21
36.73582497450374
 31
0.0
 11
-9.733031168933923
 21
36.5447078761951
 31
0.0
 11
-9.647806302593175
 21
36.35745484683971
 31
0.0
 11
-9.532958603064923
 21
36.18102331720969
 31
0.0
  0
SPLINE
  5
236
330
60
100
AcDbEntity
  8
0
  6
Continuous
 62
     7
100
AcDbSpline
210
0.0
220
0.0
230
1.0
 70
     8
 71
     3
 72
    11
 73
     7
 74
     5
 42
0.000000001
 43
0.0000000001
 44
0.00000001
 40
0.0
 40
0.0
 40
0.0
 40
0.0
 40
0.1887118202604158
 40
0.3868915568685036
 40
0.5926267609741551
 40
0.8031453554138618
 40
0.8031453554138618
 40
0.8031453554138618
 40
0.8031453554138618
 10
-8.553164178890263
 20
38.00623685997219
 30
0.0
 10
-8.549568993567037
 20
37.94325323543588
 30
0.0
 10
-8.542198232835403
 20
37.81412601793237
 30
0.0
 10
-8.48640553209933
 20
37.62322731173481
 30
0.0
 10
-8.402742545884355
 20
37.43527884702857
 30
0.0
 10
-8.323191309872945
 20
37.32123318044452
 30
0.0
 10
-8.282958603064845
 20
37.26355507193983
 30
0.0
 11
-8.553164178890263
 21
38.00623685997219
 31
0.0
 11
-8.535466495515646
 21
37.81835672923387
 31
0.0
 11
-8.483031168933854
 21
37.62723963092523
 31
0.0
 11
-8.397806302593104
 21
37.43998660156984
 31
0.0
 11
-8.282958603064845
 21
37.26355507193983
 31
0.0
  0
SPLINE
  5
237
330
60
100
AcDbEntity
  8
0
  6
Continuous
 62
     7
100
AcDbSpline
210
0.0
220
0.0
230
1.0
 70
     8
 71
     3
 72
     9
 73
     5
 74
     3
 42
0.000000001
 43
0.0000000001
 44
0.00000001
 40
0.0
 40
0.0
 40
0.0
 40
0.0
 40
0.2243284505096841
 40
0.4596934531413536
 40
0.4596934531413536
 40
0.4596934531413536
 40
0.4596934531413536
 10
-9.346970954475655
 20
35.76423654367353
 30
0.0
 10
-9.364871647121138
 20
35.83750296050601
 30
0.0
 10
-9.401553732503391
 20
35.98764036189136
 30
0.0
 10
-9.488461465326521
 20
36.11553878524439
 30
0.0
 10
-9.532958603064923
 20
36.18102331720969
 30
0.0
 11
-9.346970954475655
 21
35.76423654367353
 31
0.0
 11
-9.412633769515262
 21
35.97873980464001
 31
0.0
 11
-9.532958603064923
 21
36.18102331720969
 31
0.0
  0
SPLINE
  5
238
330
60
100
AcDbEntity
  8
0
  6
Continuous
 62
     7
100
AcDbSpline
210
0.0
220
0.0
230
1.0
 70
     8
 71
     3
 72
    11
 73
     7
 74
     5
 42
0.000000001
 43
0.0000000001
 44
0.00000001
 40
0.0
 40
0.0
 40
0.0
 40
0.0
 40
0.2744899208810917
 40
0.5627513567932727
 40
0.8620025634690172
 40
1.168211428248546
 40
1.168211428248546
 40
1.168211428248546
 40
1.168211428248546
 10
-10.23617688078256
 20
37.04870510524206
 30
0.0
 10
-10.23094752030285
 20
36.95709256029433
 30
0.0
 10
-10.22022642056878
 20
36.7692711518588
 30
0.0
 10
-10.13907339770168
 20
36.49160030645847
 30
0.0
 10
-10.01738178412444
 20
36.21822071943538
 30
0.0
 10
-9.901670889511378
 20
36.05233611687652
 30
0.0
 10
-9.843150588672852
 20
35.9684406862859
 30
0.0
 11
-10.23617688078256
 21
37.04870510524206
 31
0.0
 11
-10.21043479587401
 21
36.77542491507722
 31
0.0
 11
-10.13416522993686
 21
36.49743640844649
 31
0.0
 11
-10.01020178798668
 21
36.22506836574773
 31
0.0
 11
-9.843150588672852
 21
35.9684406862859
 31
0.0
  0
SPLINE
  5
239
330
60
100
AcDbEntity
  8
0
  6
Continuous
 62
     7
100
AcDbSpline
210
0.0
220
0.0
230
1.0
 70
     8
 71
     3
 72
     9
 73
     5
 74
     3
 42
0.000000001
 43
0.0000000001
 44
0.00000001
 40
0.0
 40
0.0
 40
0.0
 40
0.0
 40
0.2243284505096857
 40
0.4596934531413542
 40
0.4596934531413542
 40
0.4596934531413542
 40
0.4596934531413542
 10
-12.42197095447584
 20
33.10120842703741
 30
0.0
 10
-12.43987164712132
 20
33.17447484386989
 30
0.0
 10
-12.47655373250355
 20
33.32461224525525
 30
0.0
 10
-12.56346146532669
 20
33.45251066860828
 30
0.0
 10
-12.60795860306509
 20
33.51799520057358
 30
0.0
 11
-12.42197095447584
 21
33.10120842703741
 31
0.0
 11
-12.48763376951543
 21
33.31571168800389
 31
0.0
 11
-12.60795860306509
 21
33.51799520057358
 31
0.0
  0
SPLINE
  5
23A
330
60
100
AcDbEntity
  8
0
  6
Continuous
 62
     7
100
AcDbSpline
210
0.0
220
0.0
230
1.0
 70
     8
 71
     3
 72
    11
 73
     7
 74
     5
 42
0.000000001
 43
0.0000000001
 44
0.00000001
 40
0.0
 40
0.0
 40
0.0
 40
0.0
 40
0.1887118202604219
 40
0.386891556868495
 40
0.5926267609741587
 40
0.8031453554138526
 40
0.8031453554138526
 40
0.8031453554138526
 40
0.8031453554138526
 10
-11.62816417889042
 20
35.34320874333607
 30
0.0
 10
-11.6245689935672
 20
35.28022511879975
 30
0.0
 10
-11.61719823283558
 20
35.15109790129626
 30
0.0
 10
-11.5614055320995
 20
34.96019919509867
 30
0.0
 10
-11.47774254588454
 20
34.77225073039246
 30
0.0
 10
-11.39819130987313
 20
34.65820506380839
 30
0.0
 10
-11.35795860306503
 20
34.60052695530371
 30
0.0
 11
-11.62816417889042
 21
35.34320874333607
 31
0.0
 11
-11.61046649551581
 21
35.15532861259774
 31
0.0
 11
-11.55803116893403
 21
34.96421151428912
 31
0.0
 11
-11.47280630259328
 21
34.77695848493371
 31
0.0
 11
-11.35795860306503
 21
34.60052695530371
 31
0.0
  0
SPLINE
  5
23B
330
60
100
AcDbEntity
  8
0
  6
Continuous
 62
     7
100
AcDbSpline
210
0.0
220
0.0
230
1.0
 70
     8
 71
     3
 72
    13
 73
     9
 74
     7
 42
0.000000001
 43
0.0000000001
 44
0.00000001
 40
0.0
 40
0.0
 40
0.0
 40
0.0
 40
0.2877188436350829
 40
0.6264803977368169
 40
1.001156224653213
 40
1.39203173533017
 40
1.777572597994849
 40
2.136830415286836
 40
2.136830415286836
 40
2.136830415286836
 40
2.136830415286836
 10
-11.72676931502834
 20
48.1455483001025
 30
0.0
 10
-11.79422233353085
 20
48.07696545261493
 30
0.0
 10
-11.9410948499867
 20
47.9276328193135
 30
0.0
 10
-12.11333915920134
 20
47.63880774275086
 30
0.0
 10
-12.2663204550587
 20
47.30362228684337
 30
0.0
 10
-12.38198508819939
 20
46.93697640615558
 30
0.0
 10
-12.46012949026349
 20
46.56515351510848
 30
0.0
 10
-12.47135475368024
 20
46.31679045571454
 30
0.0
 10
-12.47676931502839
 20
46.19699114158754
 30
0.0
 11
-11.72676931502834
 21
48.1455483001025
 31
0.0
 11
-11.92088354710325
 21
47.93317645928948
 31
0.0
 11
-12.10176931502835
 21
47.6467506680067
 31
0.0
 11
-12.25709925952922
 21
47.3057893987512
 31
0.0
 11
-12.37628836786671
 21
46.9335292472642
 31
0.0
 11
-12.45121349160414
 21
46.55533884631352
 31
0.0
 11
-12.47676931502839
 21
46.19699114158754
 31
0.0
  0
SPLINE
  5
23C
330
60
100
AcDbEntity
  8
0
  6
Continuous
 62
     7
100
AcDbSpline
210
0.0
220
0.0
230
1.0
 70
     8
 71
     3
 72
    15
 73
    11
 74
     9
 42
0.000000001
 43
0.0000000001
 44
0.00000001
 40
0.0
 40
0.0
 40
0.0
 40
0.0
 40
0.1700708415953868
 40
0.3669913032133743
 40
0.6033891830976168
 40
0.8785743179580634
 40
1.183646135089501
 40
1.505098321648485
 40
1.827287848294152
 40
2.134480419945668
 40
2.134480419945668
 40
2.134480419945668
 40
2.134480419945668
 10
-11.28824137679042
 20
28.53652792246482
 30
0.0
 10
-11.23059862393612
 20
28.53940160017057
 30
0.0
 10
-11.10621287876357
 20
28.5456026453952
 30
0.0
 10
-10.93584362408499
 20
28.66808122612449
 30
0.0
 10
-10.78530687280916
 20
28.85027139400829
 30
0.0
 10
-10.6587825072093
 20
29.09373969114225
 30
0.0
 10
-10.5634762139372
 20
29.37976453449476
 30
0.0
 10
-10.50647670224216
 20
29.69157089016701
 30
0.0
 10
-10.48675581196408
 20
30.00944146306031
 30
0.0
 10
-10.51157182473342
 20
30.21812391100469
 30
0.0
 10
-10.52368417560597
 20
30.31997888571587
 30
0.0
 11
-11.28824137679042
 21
28.53652792246482
 31
0.0
 11
-11.11977240906548
 21
28.55981527497568
 31
0.0
 11
-10.95324399875974
 21
28.66491502855364
 31
0.0
 11
-10.79983372314828
 21
28.84477398546924
 31
0.0
 11
-10.66983828567085
 21
29.08731891826292
 31
0.0
 11
-10.57198344990252
 21
29.37627089461825
 31
0.0
 11
-10.51283675984244
 21
29.69223478076179
 31
0.0
 11
-10.49636876655594
 21
30.01400316962295
 31
0.0
 11
-10.52368417560597
 21
30.31997888571587
 31
0.0
  0
SPLINE
  5
23D
330
60
100
AcDbEntity
  8
0
  6
Continuous
 62
     7
100
AcDbSpline
210
0.0
220
0.0
230
1.0
 70
     8
 71
     3
 72
     9
 73
     5
 74
     3
 42
0.000000001
 43
0.0000000001
 44
0.00000001
 40
0.0
 40
0.0
 40
0.0
 40
0.0
 40
0.2243284505096977
 40
0.459693453141362
 40
0.459693453141362
 40
0.459693453141362
 40
0.459693453141362
 10
-11.17197095447576
 20
34.18374018176754
 30
0.0
 10
-11.18987164712124
 20
34.25700659860003
 30
0.0
 10
-11.22655373250349
 20
34.40714399998537
 30
0.0
 10
-11.31346146532663
 20
34.5350424233384
 30
0.0
 10
-11.35795860306503
 20
34.60052695530371
 30
0.0
 11
-11.17197095447576
 21
34.18374018176754
 31
0.0
 11
-11.23763376951537
 21
34.39824344273403
 31
0.0
 11
-11.35795860306503
 21
34.60052695530371
 31
0.0
  0
SPLINE
  5
23E
330
60
100
AcDbEntity
  8
0
  6
Continuous
 62
     7
100
AcDbSpline
210
0.0
220
0.0
230
1.0
 70
     8
 71
     3
 72
    11
 73
     7
 74
     5
 42
0.000000001
 43
0.0000000001
 44
0.00000001
 40
0.0
 40
0.0
 40
0.0
 40
0.0
 40
0.2843631423407323
 40
0.528574135281393
 40
0.7312723286542756
 40
0.9054147872417819
 40
0.9054147872417819
 40
0.9054147872417819
 40
0.9054147872417819
 10
-12.20011844158226
 20
29.28535623352204
 30
0.0
 10
-12.18037181742567
 20
29.19216131422514
 30
0.0
 10
-12.14366678658098
 20
29.01893062573856
 30
0.0
 10
-12.03513090348979
 20
28.79987726028548
 30
0.0
 10
-11.89465362735995
 20
28.63575953670491
 30
0.0
 10
-11.77155907367604
 20
28.60065789605065
 30
0.0
 10
-11.71467564276664
 20
28.58443702500112
 30
0.0
 11
-12.20011844158226
 21
29.28535623352204
 31
0.0
 11
-12.12879618932562
 21
29.01008267856694
 31
0.0
 11
-12.01859106610427
 21
28.79215186045451
 31
0.0
 11
-11.87724189646135
 21
28.64686947139888
 31
0.0
 11
-11.71467564276664
 21
28.58443702500112
 31
0.0
  0
SPLINE
  5
23F
330
60
100
AcDbEntity
  8
0
  6
Continuous
 62
     7
100
AcDbSpline
210
0.0
220
0.0
230
1.0
 70
     8
 71
     3
 72
    11
 73
     7
 74
     5
 42
0.000000001
 43
0.0000000001
 44
0.00000001
 40
0.0
 40
0.0
 40
0.0
 40
0.0
 40
0.2843631423407313
 40
0.5285741352813881
 40
0.7312723286542733
 40
0.9054147872417796
 40
0.9054147872417796
 40
0.9054147872417796
 40
0.9054147872417796
 10
-11.77368417560604
 20
29.23744713098574
 30
0.0
 10
-11.75393755144945
 20
29.14425221168884
 30
0.0
 10
-11.71723252060476
 20
28.97102152320226
 30
0.0
 10
-11.60869663751357
 20
28.75196815774916
 30
0.0
 10
-11.46821936138374
 20
28.58785043416862
 30
0.0
 10
-11.34512480769982
 20
28.55274879351434
 30
0.0
 10
-11.28824137679042
 20
28.53652792246482
 30
0.0
 11
-11.77368417560604
 21
29.23744713098574
 31
0.0
 11
-11.7023619233494
 21
28.96217357603064
 31
0.0
 11
-11.59215680012806
 21
28.74424275791822
 31
0.0
 11
-11.45080763048514
 21
28.59896036886258
 31
0.0
 11
-11.28824137679042
 21
28.53652792246482
 31
0.0
  0
SPLINE
  5
240
330
60
100
AcDbEntity
  8
0
  6
Continuous
 62
     7
100
AcDbSpline
210
0.0
220
0.0
230
1.0
 70
     8
 71
     3
 72
    11
 73
     7
 74
     5
 42
0.000000001
 43
0.0000000001
 44
0.00000001
 40
0.0
 40
0.0
 40
0.0
 40
0.0
 40
0.1887118202604229
 40
0.3868915568685111
 40
0.5926267609741684
 40
0.8031453554138653
 40
0.8031453554138653
 40
0.8031453554138653
 40
0.8031453554138653
 10
-12.8781641788905
 20
34.26067698860595
 30
0.0
 10
-12.87456899356728
 20
34.19769336406963
 30
0.0
 10
-12.86719823283564
 20
34.06856614656612
 30
0.0
 10
-12.81140553209956
 20
33.87766744036855
 30
0.0
 10
-12.7277425458846
 20
33.68971897566232
 30
0.0
 10
-12.64819130987319
 20
33.57567330907826
 30
0.0
 10
-12.60795860306509
 20
33.51799520057358
 30
0.0
 11
-12.8781641788905
 21
34.26067698860595
 31
0.0
 11
-12.86046649551588
 21
34.07279685786762
 31
0.0
 11
-12.80803116893409
 21
33.88167975955898
 31
0.0
 11
-12.72280630259334
 21
33.69442673020359
 31
0.0
 11
-12.60795860306509
 21
33.51799520057358
 31
0.0
  0
SPLINE
  5
241
330
60
100
AcDbEntity
  8
0
  6
Continuous
 62
     7
100
AcDbSpline
210
0.0
220
0.0
230
1.0
 70
     8
 71
     3
 72
     9
 73
     5
 74
     3
 42
0.000000001
 43
0.0000000001
 44
0.00000001
 40
0.0
 40
0.0
 40
0.0
 40
0.0
 40
0.084123168194316
 40
0.1723850434343799
 40
0.1723850434343799
 40
0.1723850434343799
 40
0.1723850434343799
 10
-12.84840522045205
 20
33.14911752957372
 30
0.0
 10
-12.85511798013451
 20
33.17659243564198
 30
0.0
 10
-12.86887377362227
 20
33.23289395639232
 30
0.0
 10
-12.90146416216232
 20
33.28085587037057
 30
0.0
 10
-12.91815058867303
 20
33.30541256964978
 30
0.0
 11
-12.84840522045205
 21
33.14911752957372
 31
0.0
 11
-12.8730287760919
 21
33.22955625243615
 31
0.0
 11
-12.91815058867303
 21
33.30541256964978
 31
0.0
  0
ENDBLK
  5
62
330
60
100
AcDbEntity
  8
0
100
AcDbBlockEnd
  0
BLOCK
  5
65
330
63
100
AcDbEntity
  8
0
100
AcDbBlockBegin
  2
Gen1
 70
     0
 10
-10.60976199989092
 20
39.99999999990905
 30
0.0
  3
Gen1
  1

  0
INSERT
  5
64
330
63
100
AcDbEntity
  8
0
100
AcDbBlockReference
  2
ESB_2-MZDB-select__3
 10
-14.20882012259727
 20
28.52405133183455
 30
0.0
  0
MTEXT
  5
242
330
63
100
AcDbEntity
  8
1
 62
     6
100
AcDbMText
 10
-10.60976199989096
 20
25.32539795712069
 30
0.0
 40
2.5
 41
0.0
 71
     2
 72
     1
  1
 
  7
CONVERTER_11
 73
     1
 44
1.32052821128451
  0
ENDBLK
  5
66
330
63
100
AcDbEntity
  8
0
100
AcDbBlockEnd
  0
BLOCK
  5
68
330
67
100
AcDbEntity
  8
0
100
AcDbBlockBegin
  2
ESB_2-MZDB-select__4
 70
     0
 10
-36.62988062588992
 20
59.82500048207723
 30
0.0
  3
ESB_2-MZDB-select__4
  1

  0
LINE
  5
243
330
67
100
AcDbEntity
  8
0
  6
Continuous
 62
     7
100
AcDbLine
 10
-33.12988062588991
 20
74.32500048207825
 30
0.0
 11
-33.12988062588991
 21
71.32500048207825
 31
0.0
  0
LINE
  5
244
330
67
100
AcDbEntity
  8
0
  6
Continuous
 62
     7
100
AcDbLine
 10
-33.62988062589206
 20
71.32500048207825
 30
0.0
 11
-33.62988062589129
 21
66.57500048207746
 31
0.0
  0
LINE
  5
245
330
67
100
AcDbEntity
  8
0
  6
Continuous
 62
     7
100
AcDbLine
 10
-35.12988062588992
 20
82.32500048207825
 30
0.0
 11
-28.47988062588991
 21
82.32500048207825
 31
0.0
  0
LINE
  5
246
330
67
100
AcDbEntity
  8
0
  6
Continuous
 62
     7
100
AcDbLine
 10
-26.97988062588991
 20
71.32500048207825
 30
0.0
 11
-27.47988062589206
 21
71.32500048207825
 31
0.0
  0
LINE
  5
247
330
67
100
AcDbEntity
  8
0
  6
Continuous
 62
     7
100
AcDbLine
 10
-29.97988062589206
 20
71.32500048207825
 30
0.0
 11
-30.47988062588991
 21
71.32500048207825
 31
0.0
  0
LINE
  5
248
330
67
100
AcDbEntity
  8
0
  6
Continuous
 62
     7
100
AcDbLine
 10
-27.47988062589206
 20
71.32500048207825
 30
0.0
 11
-29.97988062589206
 21
71.32500048207825
 31
0.0
  0
LINE
  5
249
330
67
100
AcDbEntity
  8
0
  6
Continuous
 62
     7
100
AcDbLine
 10
-36.12988062589109
 20
65.30140182910498
 30
0.0
 11
-36.12988062589039
 21
61.05601017334232
 31
0.0
  0
LINE
  5
24A
330
67
100
AcDbEntity
  8
0
  6
Continuous
 62
     7
100
AcDbLine
 10
-36.62988062588992
 20
71.32500048207825
 30
0.0
 11
-36.62988062588992
 21
80.82500048207825
 31
0.0
  0
LINE
  5
24B
330
67
100
AcDbEntity
  8
0
  6
Continuous
 62
     7
100
AcDbLine
 10
-36.12988062589206
 20
71.32500048207825
 30
0.0
 11
-36.12988062589129
 21
66.57500048207706
 31
0.0
  0
LINE
  5
24C
330
67
100
AcDbEntity
  8
0
  6
Continuous
 62
     7
100
AcDbLine
 10
-30.47988062588991
 20
74.32500048207825
 30
0.0
 11
-33.12988062588991
 21
74.32500048207825
 31
0.0
  0
LINE
  5
24D
330
67
100
AcDbEntity
  8
0
  6
Continuous
 62
     7
100
AcDbLine
 10
-33.62988062589109
 20
65.30140182910537
 30
0.0
 11
-33.6298806258911
 21
65.45862733995352
 31
0.0
  0
LINE
  5
24E
330
67
100
AcDbEntity
  8
0
  6
Continuous
 62
     7
100
AcDbLine
 10
-36.12988062589109
 20
65.30140182910498
 30
0.0
 11
-36.1298806258911
 21
65.45862733995313
 31
0.0
  0
LINE
  5
24F
330
67
100
AcDbEntity
  8
0
  6
Continuous
 62
     2
100
AcDbLine
 10
-36.12988062589109
 20
65.30140182910498
 30
0.0
 11
-33.62988062589109
 21
65.30140182910537
 31
0.0
  0
LINE
  5
250
330
67
100
AcDbEntity
  8
0
  6
Continuous
 62
     7
100
AcDbLine
 10
-33.62988062589109
 20
65.30140182910537
 30
0.0
 11
-33.62988062589039
 21
61.05601017334274
 31
0.0
  0
LINE
  5
251
330
67
100
AcDbEntity
  8
0
  6
Continuous
 62
     7
100
AcDbLine
 10
-36.12988062589129
 20
66.57500048207706
 30
0.0
 11
-36.1298806258911
 21
65.45862733995313
 31
0.0
  0
LINE
  5
252
330
67
100
AcDbEntity
  8
0
  6
Continuous
 62
     2
100
AcDbLine
 10
-33.62988062589129
 20
66.57500048207746
 30
0.0
 11
-36.12988062589129
 21
66.57500048207706
 31
0.0
  0
LINE
  5
253
330
67
100
AcDbEntity
  8
0
  6
Continuous
 62
     7
100
AcDbLine
 10
-33.62988062589129
 20
66.57500048207746
 30
0.0
 11
-33.6298806258911
 21
65.45862733995352
 31
0.0
  0
LINE
  5
254
330
67
100
AcDbEntity
  8
0
  6
Continuous
 62
     7
100
AcDbLine
 10
-36.12988062589206
 20
71.32500048207825
 30
0.0
 11
-36.62988062588992
 21
71.32500048207825
 31
0.0
  0
LINE
  5
255
330
67
100
AcDbEntity
  8
0
  6
Continuous
 62
     7
100
AcDbLine
 10
-33.12988062588991
 20
71.32500048207825
 30
0.0
 11
-33.62988062589206
 21
71.32500048207825
 31
0.0
  0
LINE
  5
256
330
67
100
AcDbEntity
  8
0
  6
Continuous
 62
     7
100
AcDbLine
 10
-33.62988062589206
 20
71.32500048207825
 30
0.0
 11
-36.12988062589206
 21
71.32500048207825
 31
0.0
  0
LINE
  5
257
330
67
100
AcDbEntity
  8
0
  6
Continuous
 62
     2
100
AcDbLine
 10
-36.1298806258911
 20
65.45862733995313
 30
0.0
 11
-33.6298806258911
 21
65.45862733995352
 31
0.0
  0
LINE
  5
258
330
67
100
AcDbEntity
  8
0
  6
Continuous
 62
     7
100
AcDbLine
 10
-26.97988062588991
 20
80.82500048207825
 30
0.0
 11
-26.97988062588991
 21
71.32500048207825
 31
0.0
  0
LINE
  5
259
330
67
100
AcDbEntity
  8
0
  6
Continuous
 62
     7
100
AcDbLine
 10
-27.4798806258904
 20
61.05601017334372
 30
0.0
 11
-27.47988062589108
 21
65.30140182910637
 31
0.0
  0
LINE
  5
25A
330
67
100
AcDbEntity
  8
0
  6
Continuous
 62
     7
100
AcDbLine
 10
-27.47988062589108
 20
65.30140182910637
 30
0.0
 11
-27.47988062589111
 21
65.45862733995452
 31
0.0
  0
LINE
  5
25B
330
67
100
AcDbEntity
  8
0
  6
Continuous
 62
     7
100
AcDbLine
 10
-27.4798806258913
 20
66.57500048207845
 30
0.0
 11
-27.47988062589111
 21
65.45862733995452
 31
0.0
  0
LINE
  5
25C
330
67
100
AcDbEntity
  8
0
  6
Continuous
 62
     2
100
AcDbLine
 10
-29.97988062589111
 20
65.45862733995412
 30
0.0
 11
-27.47988062589111
 21
65.45862733995452
 31
0.0
  0
LINE
  5
25D
330
67
100
AcDbEntity
  8
0
  6
Continuous
 62
     2
100
AcDbLine
 10
-27.4798806258913
 20
66.57500048207845
 30
0.0
 11
-29.9798806258913
 21
66.57500048207805
 31
0.0
  0
LINE
  5
25E
330
67
100
AcDbEntity
  8
0
  6
Continuous
 62
     7
100
AcDbLine
 10
-29.97988062589206
 20
71.32500048207825
 30
0.0
 11
-29.9798806258913
 21
66.57500048207805
 31
0.0
  0
LINE
  5
25F
330
67
100
AcDbEntity
  8
0
  6
Continuous
 62
     7
100
AcDbLine
 10
-27.47988062589206
 20
71.32500048207825
 30
0.0
 11
-27.4798806258913
 21
66.57500048207845
 31
0.0
  0
LINE
  5
260
330
67
100
AcDbEntity
  8
0
  6
Continuous
 62
     2
100
AcDbLine
 10
-29.97988062589108
 20
65.30140182910597
 30
0.0
 11
-27.47988062589108
 21
65.30140182910637
 31
0.0
  0
LINE
  5
261
330
67
100
AcDbEntity
  8
0
  6
Continuous
 62
     7
100
AcDbLine
 10
-29.9798806258913
 20
66.57500048207805
 30
0.0
 11
-29.97988062589111
 21
65.45862733995412
 31
0.0
  0
LINE
  5
262
330
67
100
AcDbEntity
  8
0
  6
Continuous
 62
     7
100
AcDbLine
 10
-29.97988062589108
 20
65.30140182910597
 30
0.0
 11
-29.97988062589111
 21
65.45862733995412
 31
0.0
  0
LINE
  5
263
330
67
100
AcDbEntity
  8
0
  6
Continuous
 62
     7
100
AcDbLine
 10
-30.47988062588991
 20
71.32500048207825
 30
0.0
 11
-30.47988062588991
 21
74.32500048207825
 31
0.0
  0
LINE
  5
264
330
67
100
AcDbEntity
  8
0
  6
Continuous
 62
     7
100
AcDbLine
 10
-29.9798806258904
 20
61.05601017334332
 30
0.0
 11
-29.97988062589108
 21
65.30140182910597
 31
0.0
  0
ARC
  5
265
330
67
100
AcDbEntity
  8
0
  6
Continuous
 62
     7
100
AcDbCircle
 10
-28.47988062588991
 20
80.82500048207825
 30
0.0
 40
1.5
100
AcDbArc
 50
0.0
 51
90.0
  0
ARC
  5
266
330
67
100
AcDbEntity
  8
0
  6
Continuous
 62
     7
100
AcDbCircle
 10
-35.12988062588992
 20
80.82500048207825
 30
0.0
 40
1.5
100
AcDbArc
 50
90.0
 51
180.0
  0
SPLINE
  5
267
330
67
100
AcDbEntity
  8
0
  6
Continuous
 62
     7
100
AcDbSpline
210
0.0
220
0.0
230
1.0
 70
     8
 71
     3
 72
    19
 73
    15
 74
    13
 42
0.000000001
 43
0.0000000001
 44
0.00000001
 40
0.0
 40
0.0
 40
0.0
 40
0.0
 40
0.3214430688823291
 40
0.6435318077865841
 40
0.9667358410346123
 40
1.291222916185688
 40
1.61681706947919
 40
1.943048674307869
 40
2.269280279136547
 40
2.594874432430047
 40
2.919361507581126
 40
3.242565540829151
 40
3.564654279733412
 40
3.886097348615722
 40
3.886097348615722
 40
3.886097348615722
 40
3.886097348615722
 10
-33.62988062589039
 20
61.05601017334274
 30
0.0
 10
-33.63818526285218
 20
60.94855050975664
 30
0.0
 10
-33.65481123044752
 20
60.73341533438649
 30
0.0
 10
-33.7862336010586
 20
60.43293299959129
 30
0.0
 10
-33.98603443146418
 20
60.17509158007122
 30
0.0
 10
-34.24827598504574
 20
59.97740366449674
 30
0.0
 10
-34.55294307483046
 20
59.85321908773935
 30
0.0
 10
-34.8798806258902
 20
59.81087739609015
 30
0.0
 10
-35.20681817694994
 20
59.85321908773923
 30
0.0
 10
-35.51148526673472
 20
59.97740366449653
 30
0.0
 10
-35.77372682031633
 20
60.17509158007094
 30
0.0
 10
-35.97352765072199
 20
60.43293299959093
 30
0.0
 10
-36.1049500213332
 20
60.73341533438607
 30
0.0
 10
-36.12157598892855
 20
60.94855050975622
 30
0.0
 10
-36.12988062589039
 20
61.05601017334232
 30
0.0
 11
-33.62988062589039
 21
61.05601017334274
 31
0.0
 11
-33.67247366493076
 21
60.73740150548043
 31
0.0
 11
-33.79734887115976
 21
60.44050532771007
 31
0.0
 11
-33.99599738505551
 21
60.18555510501104
 31
0.0
 11
-34.25488062589022
 21
59.98992450840207
 31
0.0
 11
-34.55635690576537
 21
59.86694643714867
 31
0.0
 11
-34.8798806258902
 21
59.82500048207726
 31
0.0
 11
-35.20340434601505
 21
59.86694643714856
 31
0.0
 11
-35.50488062589023
 21
59.98992450840186
 31
0.0
 11
-35.76376386672501
 21
60.18555510501076
 31
0.0
 11
-35.96241238062085
 21
60.44050532770972
 31
0.0
 11
-36.08728758684994
 21
60.73740150548004
 31
0.0
 11
-36.12988062589039
 21
61.05601017334232
 31
0.0
  0
SPLINE
  5
268
330
67
100
AcDbEntity
  8
0
  6
Continuous
 62
     7
100
AcDbSpline
210
0.0
220
0.0
230
1.0
 70
     8
 71
     3
 72
    19
 73
    15
 74
    13
 42
0.000000001
 43
0.0000000001
 44
0.00000001
 40
0.0
 40
0.0
 40
0.0
 40
0.0
 40
0.3214430688823197
 40
0.6435318077865748
 40
0.9667358410346052
 40
1.291222916185688
 40
1.616817069479189
 40
1.943048674307863
 40
2.269280279136541
 40
2.594874432430037
 40
2.919361507581125
 40
3.242565540829148
 40
3.564654279733406
 40
3.886097348615718
 40
3.886097348615718
 40
3.886097348615718
 40
3.886097348615718
 10
-27.4798806258904
 20
61.05601017334372
 30
0.0
 10
-27.4881852628522
 20
60.9485505097576
 30
0.0
 10
-27.50481123044751
 20
60.73341533438747
 30
0.0
 10
-27.63623360105859
 20
60.43293299959227
 30
0.0
 10
-27.83603443146418
 20
60.17509158007223
 30
0.0
 10
-28.09827598504576
 20
59.97740366449773
 30
0.0
 10
-28.40294307483047
 20
59.85321908774032
 30
0.0
 10
-28.7298806258902
 20
59.81087739609116
 30
0.0
 10
-29.05681817694994
 20
59.8532190877402
 30
0.0
 10
-29.36148526673472
 20
59.97740366449754
 30
0.0
 10
-29.62372682031631
 20
60.17509158007192
 30
0.0
 10
-29.82352765072202
 20
60.43293299959194
 30
0.0
 10
-29.95495002133319
 20
60.73341533438706
 30
0.0
 10
-29.97157598892856
 20
60.94855050975724
 30
0.0
 10
-29.9798806258904
 20
61.05601017334332
 30
0.0
 11
-27.4798806258904
 21
61.05601017334372
 31
0.0
 11
-27.52247366493076
 21
60.73740150548142
 31
0.0
 11
-27.64734887115975
 21
60.44050532771106
 31
0.0
 11
-27.84599738505551
 21
60.18555510501203
 31
0.0
 11
-28.10488062589023
 21
59.98992450840306
 31
0.0
 11
-28.40635690576537
 21
59.86694643714965
 31
0.0
 11
-28.7298806258902
 21
59.82500048207825
 31
0.0
 11
-29.05340434601505
 21
59.86694643714954
 31
0.0
 11
-29.35488062589022
 21
59.98992450840286
 31
0.0
 11
-29.61376386672501
 21
60.18555510501176
 31
0.0
 11
-29.81241238062086
 21
60.44050532771071
 31
0.0
 11
-29.93728758684994
 21
60.73740150548103
 31
0.0
 11
-29.9798806258904
 21
61.05601017334332
 31
0.0
  0
ENDBLK
  5
69
330
67
100
AcDbEntity
  8
0
100
AcDbBlockEnd
  0
BLOCK
  5
6C
330
6A
100
AcDbEntity
  8
0
100
AcDbBlockBegin
  2
Left1
 70
     0
 10
-31.80488124490787
 20
71.07500016681809
 30
0.0
  3
Left1
  1

  0
INSERT
  5
6B
330
6A
100
AcDbEntity
  8
0
100
AcDbBlockReference
  2
ESB_2-MZDB-select__4
 10
-36.62988062588992
 20
59.82500048207723
 30
0.0
  0
MTEXT
  5
269
330
6A
100
AcDbEntity
  8
1
 62
     6
100
AcDbMText
 10
-31.80488124490785
 20
57.32499980919016
 30
0.0
 40
2.5
 41
0.0
 71
     2
 72
     1
  1
 
  7
CONVERTER_11
 73
     1
 44
1.32052821128451
  0
ENDBLK
  5
6D
330
6A
100
AcDbEntity
  8
0
100
AcDbBlockEnd
  0
BLOCK
  5
6F
330
6E
100
AcDbEntity
  8
0
100
AcDbBlockBegin
  2
ESB_2-MZDB-select__5
 70
     0
 10
-79.02011937411007
 20
59.82500048207717
 30
0.0
  3
ESB_2-MZDB-select__5
  1

  0
LINE
  5
26A
330
6E
100
AcDbEntity
  8
0
  6
Continuous
 62
     7
100
AcDbLine
 10
-69.87011937410958
 20
61.05601017334226
 30
0.0
 11
-69.87011937410958
 21
61.14283426217573
 31
0.0
  0
LINE
  5
26B
330
6E
100
AcDbEntity
  8
0
  6
Continuous
 62
     7
100
AcDbLine
 10
-69.87011937410958
 20
61.14283426217573
 30
0.0
 11
-69.87011937410887
 21
65.38822591793837
 31
0.0
  0
LINE
  5
26C
330
6E
100
AcDbEntity
  8
0
  6
Continuous
 62
     7
100
AcDbLine
 10
-69.87011937410887
 20
65.38822591793837
 30
0.0
 11
-69.87011937410881
 21
65.8074939468668
 31
0.0
  0
LINE
  5
26D
330
6E
100
AcDbEntity
  8
0
  6
Continuous
 62
     2
100
AcDbLine
 10
-72.3701193741087
 20
66.5750004820774
 30
0.0
 11
-69.8701193741087
 21
66.575000482077
 31
0.0
  0
LINE
  5
26E
330
6E
100
AcDbEntity
  8
0
  6
Continuous
 62
     7
100
AcDbLine
 10
-69.87011937410793
 20
71.32500048207821
 30
0.0
 11
-69.37011937411006
 21
71.32500048207821
 31
0.0
  0
LINE
  5
26F
330
6E
100
AcDbEntity
  8
0
  6
Continuous
 62
     7
100
AcDbLine
 10
-72.87011937411006
 20
71.32500048207821
 30
0.0
 11
-72.37011937410793
 21
71.32500048207821
 31
0.0
  0
LINE
  5
270
330
6E
100
AcDbEntity
  8
0
  6
Continuous
 62
     7
100
AcDbLine
 10
-72.37011937410793
 20
71.32500048207821
 30
0.0
 11
-69.87011937410793
 21
71.32500048207821
 31
0.0
  0
LINE
  5
271
330
6E
100
AcDbEntity
  8
0
  6
Continuous
 62
     7
100
AcDbLine
 10
-69.87011937410793
 20
71.32500048207821
 30
0.0
 11
-69.8701193741087
 21
66.575000482077
 31
0.0
  0
LINE
  5
272
330
6E
100
AcDbEntity
  8
0
  6
Continuous
 62
     2
100
AcDbLine
 10
-72.37011937410881
 20
65.8074939468672
 30
0.0
 11
-69.87011937410881
 21
65.8074939468668
 31
0.0
  0
LINE
  5
273
330
6E
100
AcDbEntity
  8
0
  6
Continuous
 62
     2
100
AcDbLine
 10
-72.37011937410887
 20
65.38822591793877
 30
0.0
 11
-69.87011937410887
 21
65.38822591793837
 31
0.0
  0
LINE
  5
274
330
6E
100
AcDbEntity
  8
0
  6
Continuous
 62
     7
100
AcDbLine
 10
-72.37011937410958
 20
61.05601017334266
 30
0.0
 11
-72.37011937410958
 21
61.14283426217613
 31
0.0
  0
LINE
  5
275
330
6E
100
AcDbEntity
  8
0
  6
Continuous
 62
     7
100
AcDbLine
 10
-72.87011937411006
 20
74.32500048207821
 30
0.0
 11
-72.87011937411006
 21
71.32500048207821
 31
0.0
  0
LINE
  5
276
330
6E
100
AcDbEntity
  8
0
  6
Continuous
 62
     7
100
AcDbLine
 10
-72.37011937410793
 20
71.32500048207821
 30
0.0
 11
-72.3701193741087
 21
66.5750004820774
 31
0.0
  0
LINE
  5
277
330
6E
100
AcDbEntity
  8
0
  6
Continuous
 62
     7
100
AcDbLine
 10
-72.3701193741087
 20
66.5750004820774
 30
0.0
 11
-72.37011937410881
 21
65.8074939468672
 31
0.0
  0
LINE
  5
278
330
6E
100
AcDbEntity
  8
0
  6
Continuous
 62
     7
100
AcDbLine
 10
-72.37011937410887
 20
65.38822591793877
 30
0.0
 11
-72.37011937410881
 21
65.8074939468672
 31
0.0
  0
LINE
  5
279
330
6E
100
AcDbEntity
  8
0
  6
Continuous
 62
     7
100
AcDbLine
 10
-72.37011937410958
 20
61.14283426217613
 30
0.0
 11
-72.37011937410887
 21
65.38822591793877
 31
0.0
  0
LINE
  5
27A
330
6E
100
AcDbEntity
  8
0
  6
Continuous
 62
     7
100
AcDbLine
 10
-69.37011937411006
 20
71.32500048207821
 30
0.0
 11
-69.37011937411006
 21
80.82500048207821
 31
0.0
  0
LINE
  5
27B
330
6E
100
AcDbEntity
  8
0
  6
Continuous
 62
     7
100
AcDbLine
 10
-69.8701193741087
 20
66.575000482077
 30
0.0
 11
-69.87011937410881
 21
65.8074939468668
 31
0.0
  0
LINE
  5
27C
330
6E
100
AcDbEntity
  8
0
  6
Continuous
 62
     2
100
AcDbLine
 10
-78.52011937410887
 20
65.38822591793976
 30
0.0
 11
-76.02011937410887
 21
65.38822591793937
 31
0.0
  0
LINE
  5
27D
330
6E
100
AcDbEntity
  8
0
  6
Continuous
 62
     7
100
AcDbLine
 10
-78.52011937410794
 20
71.32500048207821
 30
0.0
 11
-78.5201193741087
 21
66.5750004820784
 31
0.0
  0
LINE
  5
27E
330
6E
100
AcDbEntity
  8
0
  6
Continuous
 62
     2
100
AcDbLine
 10
-78.5201193741087
 20
66.5750004820784
 30
0.0
 11
-76.0201193741087
 21
66.575000482078
 31
0.0
  0
LINE
  5
27F
330
6E
100
AcDbEntity
  8
0
  6
Continuous
 62
     2
100
AcDbLine
 10
-78.52011937410882
 20
65.80749394686819
 30
0.0
 11
-76.02011937410882
 21
65.8074939468678
 31
0.0
  0
LINE
  5
280
330
6E
100
AcDbEntity
  8
0
  6
Continuous
 62
     7
100
AcDbLine
 10
-75.52011937411007
 20
74.32500048207821
 30
0.0
 11
-72.87011937411006
 21
74.32500048207821
 31
0.0
  0
LINE
  5
281
330
6E
100
AcDbEntity
  8
0
  6
Continuous
 62
     7
100
AcDbLine
 10
-70.87011937411006
 20
82.32500048207821
 30
0.0
 11
-77.52011937411007
 21
82.32500048207821
 31
0.0
  0
LINE
  5
282
330
6E
100
AcDbEntity
  8
0
  6
Continuous
 62
     7
100
AcDbLine
 10
-76.02011937410794
 20
71.32500048207821
 30
0.0
 11
-75.52011937411007
 21
71.32500048207821
 31
0.0
  0
LINE
  5
283
330
6E
100
AcDbEntity
  8
0
  6
Continuous
 62
     7
100
AcDbLine
 10
-79.02011937411007
 20
71.32500048207821
 30
0.0
 11
-78.52011937410794
 21
71.32500048207821
 31
0.0
  0
LINE
  5
284
330
6E
100
AcDbEntity
  8
0
  6
Continuous
 62
     7
100
AcDbLine
 10
-78.52011937410794
 20
71.32500048207821
 30
0.0
 11
-76.02011937410794
 21
71.32500048207821
 31
0.0
  0
LINE
  5
285
330
6E
100
AcDbEntity
  8
0
  6
Continuous
 62
     7
100
AcDbLine
 10
-76.02011937410887
 20
65.38822591793937
 30
0.0
 11
-76.02011937410882
 21
65.8074939468678
 31
0.0
  0
LINE
  5
286
330
6E
100
AcDbEntity
  8
0
  6
Continuous
 62
     7
100
AcDbLine
 10
-76.02011937410958
 20
61.05601017334325
 30
0.0
 11
-76.02011937410956
 21
61.14283426217672
 31
0.0
  0
LINE
  5
287
330
6E
100
AcDbEntity
  8
0
  6
Continuous
 62
     7
100
AcDbLine
 10
-75.52011937411007
 20
71.32500048207821
 30
0.0
 11
-75.52011937411007
 21
74.32500048207821
 31
0.0
  0
LINE
  5
288
330
6E
100
AcDbEntity
  8
0
  6
Continuous
 62
     7
100
AcDbLine
 10
-76.02011937410794
 20
71.32500048207821
 30
0.0
 11
-76.0201193741087
 21
66.575000482078
 31
0.0
  0
LINE
  5
289
330
6E
100
AcDbEntity
  8
0
  6
Continuous
 62
     7
100
AcDbLine
 10
-76.0201193741087
 20
66.575000482078
 30
0.0
 11
-76.02011937410882
 21
65.8074939468678
 31
0.0
  0
LINE
  5
28A
330
6E
100
AcDbEntity
  8
0
  6
Continuous
 62
     7
100
AcDbLine
 10
-76.02011937410956
 20
61.14283426217672
 30
0.0
 11
-76.02011937410887
 21
65.38822591793937
 31
0.0
  0
LINE
  5
28B
330
6E
100
AcDbEntity
  8
0
  6
Continuous
 62
     7
100
AcDbLine
 10
-78.52011937410887
 20
65.38822591793976
 30
0.0
 11
-78.52011937410882
 21
65.80749394686819
 31
0.0
  0
LINE
  5
28C
330
6E
100
AcDbEntity
  8
0
  6
Continuous
 62
     7
100
AcDbLine
 10
-78.52011937410958
 20
61.05601017334365
 30
0.0
 11
-78.52011937410956
 21
61.14283426217713
 31
0.0
  0
LINE
  5
28D
330
6E
100
AcDbEntity
  8
0
  6
Continuous
 62
     7
100
AcDbLine
 10
-79.02011937411007
 20
80.82500048207821
 30
0.0
 11
-79.02011937411007
 21
71.32500048207821
 31
0.0
  0
LINE
  5
28E
330
6E
100
AcDbEntity
  8
0
  6
Continuous
 62
     7
100
AcDbLine
 10
-78.5201193741087
 20
66.5750004820784
 30
0.0
 11
-78.52011937410882
 21
65.80749394686819
 31
0.0
  0
LINE
  5
28F
330
6E
100
AcDbEntity
  8
0
  6
Continuous
 62
     7
100
AcDbLine
 10
-78.52011937410956
 20
61.14283426217713
 30
0.0
 11
-78.52011937410887
 21
65.38822591793976
 31
0.0
  0
ARC
  5
290
330
6E
100
AcDbEntity
  8
0
  6
Continuous
 62
     7
100
AcDbCircle
 10
-70.87011937411006
 20
80.82500048207821
 30
0.0
 40
1.5
100
AcDbArc
 50
0.0
 51
90.0
  0
ARC
  5
291
330
6E
100
AcDbEntity
  8
0
  6
Continuous
 62
     7
100
AcDbCircle
 10
-77.52011937411007
 20
80.82500048207821
 30
0.0
 40
1.5
100
AcDbArc
 50
90.0
 51
180.0
  0
SPLINE
  5
292
330
6E
100
AcDbEntity
  8
0
  6
Continuous
 62
     7
100
AcDbSpline
210
0.0
220
0.0
230
1.0
 70
     8
 71
     3
 72
    19
 73
    15
 74
    13
 42
0.000000001
 43
0.0000000001
 44
0.00000001
 40
0.0
 40
0.0
 40
0.0
 40
0.0
 40
0.3214430688823122
 40
0.6435318077865728
 40
0.9667358410345998
 40
1.291222916185685
 40
1.616817069479187
 40
1.943048674307859
 40
2.269280279136531
 40
2.594874432430037
 40
2.919361507581113
 40
3.242565540829127
 40
3.564654279733388
 40
3.886097348615714
 40
3.886097348615714
 40
3.886097348615714
 40
3.886097348615714
 10
-72.37011937410958
 20
61.14283426217613
 30
0.0
 10
-72.36181473714777
 20
61.03537459859005
 30
0.0
 10
-72.34518876955246
 20
60.82023942321986
 30
0.0
 10
-72.21376639894137
 20
60.51975708842471
 30
0.0
 10
-72.01396556853577
 20
60.26191566890463
 30
0.0
 10
-71.75172401495422
 20
60.06422775333012
 30
0.0
 10
-71.4470569251695
 20
59.94004317657276
 30
0.0
 10
-71.12011937410975
 20
59.89770148492353
 30
0.0
 10
-70.79318182305005
 20
59.94004317657266
 30
0.0
 10
-70.48851473326523
 20
60.06422775332992
 30
0.0
 10
-70.22627317968364
 20
60.26191566890434
 30
0.0
 10
-70.02647234927798
 20
60.51975708842436
 30
0.0
 10
-69.89504997866675
 20
60.82023942321943
 30
0.0
 10
-69.87842401107143
 20
61.03537459858966
 30
0.0
 10
-69.87011937410958
 20
61.14283426217573
 30
0.0
 11
-72.37011937410958
 21
61.14283426217613
 31
0.0
 11
-72.32752633506922
 21
60.82422559431383
 31
0.0
 11
-72.20265112884022
 21
60.52732941654347
 31
0.0
 11
-72.00400261494445
 21
60.27237919384445
 31
0.0
 11
-71.74511937410973
 21
60.07674859723547
 31
0.0
 11
-71.44364309423459
 21
59.95377052598207
 31
0.0
 11
-71.12011937410976
 21
59.91182457091067
 31
0.0
 11
-70.79659565398492
 21
59.95377052598197
 31
0.0
 11
-70.49511937410973
 21
60.07674859723527
 31
0.0
 11
-70.23623613327496
 21
60.27237919384416
 31
0.0
 11
-70.03758761937912
 21
60.52732941654311
 31
0.0
 11
-69.91271241315003
 21
60.82422559431343
 31
0.0
 11
-69.87011937410958
 21
61.14283426217573
 31
0.0
  0
SPLINE
  5
293
330
6E
100
AcDbEntity
  8
0
  6
Continuous
 62
     7
100
AcDbSpline
210
0.0
220
0.0
230
1.0
 70
     8
 71
     3
 72
    19
 73
    15
 74
    13
 42
0.000000001
 43
0.0000000001
 44
0.00000001
 40
0.0
 40
0.0
 40
0.0
 40
0.0
 40
0.3214430688823051
 40
0.6435318077865668
 40
0.9667358410345938
 40
1.291222916185679
 40
1.616817069479184
 40
1.943048674307854
 40
2.269280279136511
 40
2.594874432430014
 40
2.919361507581089
 40
3.24256554082913
 40
3.564654279733384
 40
3.886097348615697
 40
3.886097348615697
 40
3.886097348615697
 40
3.886097348615697
 10
-72.37011937410958
 20
61.05601017334266
 30
0.0
 10
-72.36181473714777
 20
60.94855050975658
 30
0.0
 10
-72.34518876955246
 20
60.73341533438641
 30
0.0
 10
-72.21376639894137
 20
60.43293299959122
 30
0.0
 10
-72.01396556853578
 20
60.17509158007118
 30
0.0
 10
-71.75172401495423
 20
59.97740366449665
 30
0.0
 10
-71.4470569251695
 20
59.85321908773928
 30
0.0
 10
-71.12011937410978
 20
59.81087739609008
 30
0.0
 10
-70.79318182305005
 20
59.85321908773918
 30
0.0
 10
-70.48851473326529
 20
59.97740366449646
 30
0.0
 10
-70.22627317968363
 20
60.17509158007086
 30
0.0
 10
-70.026472349278
 20
60.43293299959088
 30
0.0
 10
-69.89504997866682
 20
60.73341533438601
 30
0.0
 10
-69.8784240110714
 20
60.94855050975618
 30
0.0
 10
-69.87011937410958
 20
61.05601017334226
 30
0.0
 11
-72.37011937410958
 21
61.05601017334266
 31
0.0
 11
-72.32752633506922
 21
60.73740150548037
 31
0.0
 11
-72.20265112884023
 21
60.44050532771001
 31
0.0
 11
-72.00400261494447
 21
60.18555510501098
 31
0.0
 11
-71.74511937410975
 21
59.98992450840201
 31
0.0
 11
-71.4436430942346
 21
59.8669464371486
 31
0.0
 11
-71.12011937410978
 21
59.82500048207721
 31
0.0
 11
-70.79659565398495
 21
59.8669464371485
 31
0.0
 11
-70.49511937410976
 21
59.9899245084018
 31
0.0
 11
-70.23623613327499
 21
60.18555510501069
 31
0.0
 11
-70.03758761937914
 21
60.44050532770966
 31
0.0
 11
-69.91271241315005
 21
60.73740150547997
 31
0.0
 11
-69.87011937410958
 21
61.05601017334226
 31
0.0
  0
SPLINE
  5
294
330
6E
100
AcDbEntity
  8
0
  6
Continuous
 62
     7
100
AcDbSpline
210
0.0
220
0.0
230
1.0
 70
     8
 71
     3
 72
    19
 73
    15
 74
    13
 42
0.000000001
 43
0.0000000001
 44
0.00000001
 40
0.0
 40
0.0
 40
0.0
 40
0.0
 40
0.3214430688823263
 40
0.6435318077865814
 40
0.9667358410346027
 40
1.291222916185673
 40
1.616817069479164
 40
1.94304867430785
 40
2.269280279136535
 40
2.594874432430031
 40
2.919361507581111
 40
3.24256554082914
 40
3.564654279733394
 40
3.886097348615707
 40
3.886097348615707
 40
3.886097348615707
 40
3.886097348615707
 10
-78.52011937410956
 20
61.14283426217713
 30
0.0
 10
-78.51181473714776
 20
61.03537459859104
 30
0.0
 10
-78.49518876955244
 20
60.82023942322084
 30
0.0
 10
-78.36376639894135
 20
60.51975708842568
 30
0.0
 10
-78.16396556853577
 20
60.26191566890564
 30
0.0
 10
-77.90172401495421
 20
60.06422775333112
 30
0.0
 10
-77.59705692516951
 20
59.94004317657377
 30
0.0
 10
-77.27011937410975
 20
59.89770148492453
 30
0.0
 10
-76.94318182305004
 20
59.94004317657365
 30
0.0
 10
-76.63851473326525
 20
60.06422775333093
 30
0.0
 10
-76.37627317968366
 20
60.26191566890536
 30
0.0
 10
-76.17647234927793
 20
60.51975708842532
 30
0.0
 10
-76.0450499786668
 20
60.82023942322049
 30
0.0
 10
-76.02842401107141
 20
61.03537459859064
 30
0.0
 10
-76.02011937410956
 20
61.14283426217672
 30
0.0
 11
-78.52011937410956
 21
61.14283426217713
 31
0.0
 11
-78.4775263350692
 21
60.82422559431482
 31
0.0
 11
-78.35265112884021
 21
60.52732941654446
 31
0.0
 11
-78.15400261494445
 21
60.27237919384545
 31
0.0
 11
-77.89511937410974
 21
60.07674859723647
 31
0.0
 11
-77.59364309423461
 21
59.95377052598307
 31
0.0
 11
-77.27011937410977
 21
59.91182457091166
 31
0.0
 11
-76.94659565398491
 21
59.95377052598295
 31
0.0
 11
-76.64511937410974
 21
60.07674859723627
 31
0.0
 11
-76.38623613327496
 21
60.27237919384516
 31
0.0
 11
-76.18758761937912
 21
60.52732941654412
 31
0.0
 11
-76.06271241315002
 21
60.82422559431443
 31
0.0
 11
-76.02011937410956
 21
61.14283426217672
 31
0.0
  0
SPLINE
  5
295
330
6E
100
AcDbEntity
  8
0
  6
Continuous
 62
     7
100
AcDbSpline
210
0.0
220
0.0
230
1.0
 70
     8
 71
     3
 72
    19
 73
    15
 74
    13
 42
0.000000001
 43
0.0000000001
 44
0.00000001
 40
0.0
 40
0.0
 40
0.0
 40
0.0
 40
0.3214430688823122
 40
0.6435318077865673
 40
0.9667358410345743
 40
1.291222916185675
 40
1.616817069479177
 40
1.943048674307849
 40
2.269280279136534
 40
2.594874432430033
 40
2.919361507581124
 40
3.242565540829133
 40
3.564654279733381
 40
3.886097348615702
 40
3.886097348615702
 40
3.886097348615702
 40
3.886097348615702
 10
-78.52011937410958
 20
61.05601017334365
 30
0.0
 10
-78.5118147371478
 20
60.94855050975756
 30
0.0
 10
-78.49518876955247
 20
60.7334153343874
 30
0.0
 10
-78.36376639894138
 20
60.43293299959221
 30
0.0
 10
-78.16396556853583
 20
60.17509158007217
 30
0.0
 10
-77.90172401495423
 20
59.97740366449766
 30
0.0
 10
-77.59705692516951
 20
59.85321908774027
 30
0.0
 10
-77.2701193741098
 20
59.8108773960911
 30
0.0
 10
-76.94318182305001
 20
59.85321908774013
 30
0.0
 10
-76.63851473326528
 20
59.97740366449747
 30
0.0
 10
-76.37627317968365
 20
60.17509158007191
 30
0.0
 10
-76.17647234927796
 20
60.43293299959184
 30
0.0
 10
-76.04504997866681
 20
60.73341533438703
 30
0.0
 10
-76.02842401107141
 20
60.94855050975715
 30
0.0
 10
-76.02011937410958
 20
61.05601017334325
 30
0.0
 11
-78.52011937410958
 21
61.05601017334365
 31
0.0
 11
-78.47752633506923
 21
60.73740150548135
 31
0.0
 11
-78.35265112884024
 21
60.44050532771099
 31
0.0
 11
-78.15400261494449
 21
60.18555510501199
 31
0.0
 11
-77.89511937410975
 21
59.989924508403
 31
0.0
 11
-77.59364309423461
 21
59.8669464371496
 31
0.0
 11
-77.27011937410978
 21
59.8250004820782
 31
0.0
 11
-76.94659565398493
 21
59.86694643714949
 31
0.0
 11
-76.64511937410975
 21
59.98992450840281
 31
0.0
 11
-76.38623613327496
 21
60.1855551050117
 31
0.0
 11
-76.18758761937913
 21
60.44050532771065
 31
0.0
 11
-76.06271241315005
 21
60.73740150548096
 31
0.0
 11
-76.02011937410958
 21
61.05601017334325
 31
0.0
  0
ENDBLK
  5
70
330
6E
100
AcDbEntity
  8
0
100
AcDbBlockEnd
  0
BLOCK
  5
73
330
71
100
AcDbEntity
  8
0
100
AcDbBlockBegin
  2
Right1
 70
     0
 10
-74.19511875509212
 20
71.07500016681803
 30
0.0
  3
Right1
  1

  0
INSERT
  5
72
330
71
100
AcDbEntity
  8
0
100
AcDbBlockReference
  2
ESB_2-MZDB-select__5
 10
-79.02011937411007
 20
59.82500048207717
 30
0.0
  0
MTEXT
  5
296
330
71
100
AcDbEntity
  8
1
 62
     6
100
AcDbMText
 10
-74.19511875509215
 20
57.32499980919016
 30
0.0
 40
2.5
 41
0.0
 71
     2
 72
     1
  1
 
  7
CONVERTER_11
 73
     1
 44
1.32052821128451
  0
ENDBLK
  5
74
330
71
100
AcDbEntity
  8
0
100
AcDbBlockEnd
  0
BLOCK
  5
76
330
75
100
AcDbEntity
  8
0
100
AcDbBlockBegin
  2
ESB_2-MZDB-select__6
 70
     0
 10
-54.37011894559699
 20
35.17499938099212
 30
0.0
  3
ESB_2-MZDB-select__6
  1

  0
LINE
  5
297
330
75
100
AcDbEntity
  8
0
  6
Continuous
 62
     7
100
AcDbLine
 10
-52.37011894559699
 20
44.82499938099213
 30
0.0
 11
-54.37011894559699
 21
44.82499938099213
 31
0.0
  0
LINE
  5
298
330
75
100
AcDbEntity
  8
0
  6
Continuous
 62
     7
100
AcDbLine
 10
-51.84694129117455
 20
44.32499938099262
 30
0.0
 11
-52.37011894559699
 21
44.32499938099571
 31
0.0
  0
LINE
  5
299
330
75
100
AcDbEntity
  8
0
  6
Continuous
 62
     7
100
AcDbLine
 10
-52.37011894559699
 20
36.67499938099212
 30
0.0
 11
-52.37011894559699
 21
35.17499938099212
 31
0.0
  0
LINE
  5
29A
330
75
100
AcDbEntity
  8
0
  6
Continuous
 62
     7
100
AcDbLine
 10
-51.84694129117455
 20
35.67499938099262
 30
0.0
 11
-52.37011894559699
 21
35.67499938099572
 31
0.0
  0
LINE
  5
29B
330
75
100
AcDbEntity
  8
0
  6
Continuous
 62
     7
100
AcDbLine
 10
-51.84694129117455
 20
38.17499938099262
 30
0.0
 11
-52.37011894559699
 21
38.17499938099572
 31
0.0
  0
LINE
  5
29C
330
75
100
AcDbEntity
  8
0
  6
Continuous
 62
     7
100
AcDbLine
 10
-54.37011894559699
 20
43.32499938099213
 30
0.0
 11
-54.37011894559699
 21
44.82499938099213
 31
0.0
  0
LINE
  5
29D
330
75
100
AcDbEntity
  8
0
  6
Continuous
 62
     7
100
AcDbLine
 10
-54.37011894559699
 20
36.67499938099212
 30
0.0
 11
-54.37011894559699
 21
35.17499938099212
 31
0.0
  0
LINE
  5
29E
330
75
100
AcDbEntity
  8
0
  6
Continuous
 62
     7
100
AcDbLine
 10
-54.37011894559699
 20
43.32499938099213
 30
0.0
 11
-54.37011894559699
 21
36.67499938099212
 31
0.0
  0
LINE
  5
29F
330
75
100
AcDbEntity
  8
0
  6
Continuous
 62
     7
100
AcDbLine
 10
-52.37011894559699
 20
43.32499938099213
 30
0.0
 11
-52.37011894559699
 21
44.82499938099213
 31
0.0
  0
LINE
  5
2A0
330
75
100
AcDbEntity
  8
0
  6
Continuous
 62
     7
100
AcDbLine
 10
-52.37011894559699
 20
43.32499938099213
 30
0.0
 11
-52.37011894559699
 21
36.67499938099212
 31
0.0
  0
LINE
  5
2A1
330
75
100
AcDbEntity
  8
0
  6
Continuous
 62
     2
100
AcDbLine
 10
-52.37011894559699
 20
43.32499938099213
 30
0.0
 11
-54.37011894559699
 21
43.32499938099213
 31
0.0
  0
LINE
  5
2A2
330
75
100
AcDbEntity
  8
0
  6
Continuous
 62
     7
100
AcDbLine
 10
-51.84694129117455
 20
41.82499938099262
 30
0.0
 11
-52.37011894559699
 21
41.82499938099571
 31
0.0
  0
LINE
  5
2A3
330
75
100
AcDbEntity
  8
0
  6
Continuous
 62
     7
100
AcDbLine
 10
-54.37011894559699
 20
35.17499938099212
 30
0.0
 11
-52.37011894559699
 21
35.17499938099212
 31
0.0
  0
LINE
  5
2A4
330
75
100
AcDbEntity
  8
0
  6
Continuous
 62
     2
100
AcDbLine
 10
-54.37011894559699
 20
36.67499938099212
 30
0.0
 11
-52.37011894559699
 21
36.67499938099212
 31
0.0
  0
SPLINE
  5
2A5
330
75
100
AcDbEntity
  8
0
  6
Continuous
 62
     7
100
AcDbSpline
210
0.0
220
0.0
230
1.0
 70
     8
 71
     3
 72
    19
 73
    15
 74
    13
 42
0.000000001
 43
0.0000000001
 44
0.00000001
 40
0.0
 40
0.0
 40
0.0
 40
0.0
 40
0.0705002258214291
 40
0.2059048927218182
 40
0.4095765620105598
 40
0.6707478368625011
 40
0.9730029598059582
 40
1.296611214263736
 40
1.620219468721535
 40
1.922474591665027
 40
2.183645866517033
 40
2.387317535805849
 40
2.522722202706326
 40
2.593222428527814
 40
2.593222428527814
 40
2.593222428527814
 40
2.593222428527814
 10
-51.84694129117455
 20
41.82499938099262
 30
0.0
 10
-51.82657656138172
 20
41.83786631082359
 30
0.0
 10
-51.76709876241508
 20
41.875445804988
 30
0.0
 10
-51.73218209258267
 20
42.01793624010472
 30
0.0
 10
-51.6855539099549
 20
42.20768090888622
 30
0.0
 10
-51.65550032341368
 20
42.46402092419287
 30
0.0
 10
-51.63431523555968
 20
42.75829595228884
 30
0.0
 10
-51.62758832850651
 20
43.07499938099242
 30
0.0
 10
-51.63431523555965
 20
43.39170280969606
 30
0.0
 10
-51.6555003234137
 20
43.68597783779203
 30
0.0
 10
-51.6855539099549
 20
43.94231785309876
 30
0.0
 10
-51.73218209258269
 20
44.13206252188036
 30
0.0
 10
-51.76709876241509
 20
44.27455295699708
 30
0.0
 10
-51.82657656138172
 20
44.31213245116163
 30
0.0
 10
-51.84694129117455
 20
44.32499938099262
 30
0.0
 11
-51.84694129117455
 21
41.82499938099262
 31
0.0
 11
-51.79076198674284
 21
41.86759242003298
 31
0.0
 11
-51.73841118013272
 21
41.99246762626198
 31
0.0
 11
-51.69345657713325
 21
42.19111614015773
 31
0.0
 11
-51.658961624699
 21
42.44999938099245
 31
0.0
 11
-51.63727727270155
 21
42.7514756608676
 31
0.0
 11
-51.62988106909089
 21
43.07499938099242
 31
0.0
 11
-51.63727727270155
 21
43.39852310111727
 31
0.0
 11
-51.658961624699
 21
43.69999938099245
 31
0.0
 11
-51.69345657713325
 21
43.95888262182724
 31
0.0
 11
-51.73841118013272
 21
44.15753113572307
 31
0.0
 11
-51.79076198674285
 21
44.28240634195215
 31
0.0
 11
-51.84694129117455
 21
44.32499938099262
 31
0.0
  0
SPLINE
  5
2A6
330
75
100
AcDbEntity
  8
0
  6
Continuous
 62
     7
100
AcDbSpline
210
0.0
220
0.0
230
1.0
 70
     8
 71
     3
 72
    19
 73
    15
 74
    13
 42
0.000000001
 43
0.0000000001
 44
0.00000001
 40
0.0
 40
0.0
 40
0.0
 40
0.0
 40
0.0705002258214291
 40
0.2059048927218182
 40
0.4095765620105598
 40
0.6707478368625011
 40
0.9730029598059512
 40
1.296611214263743
 40
1.620219468721549
 40
1.922474591665042
 40
2.183645866517033
 40
2.387317535805863
 40
2.522722202706347
 40
2.593222428527822
 40
2.593222428527822
 40
2.593222428527822
 40
2.593222428527822
 10
-51.84694129117455
 20
35.67499938099262
 30
0.0
 10
-51.82657656138172
 20
35.68786631082358
 30
0.0
 10
-51.76709876241508
 20
35.72544580498801
 30
0.0
 10
-51.73218209258267
 20
35.86793624010471
 30
0.0
 10
-51.6855539099549
 20
36.05768090888621
 30
0.0
 10
-51.65550032341369
 20
36.31402092419288
 30
0.0
 10
-51.63431523555963
 20
36.60829595228881
 30
0.0
 10
-51.62758832850652
 20
36.92499938099243
 30
0.0
 10
-51.63431523555967
 20
37.24170280969606
 30
0.0
 10
-51.65550032341368
 20
37.53597783779203
 30
0.0
 10
-51.6855539099549
 20
37.79231785309875
 30
0.0
 10
-51.7321820925827
 20
37.98206252188035
 30
0.0
 10
-51.76709876241506
 20
38.12455295699709
 30
0.0
 10
-51.82657656138174
 20
38.16213245116165
 30
0.0
 10
-51.84694129117455
 20
38.17499938099262
 30
0.0
 11
-51.84694129117455
 21
35.67499938099262
 31
0.0
 11
-51.79076198674284
 21
35.71759242003298
 31
0.0
 11
-51.73841118013272
 21
35.84246762626197
 31
0.0
 11
-51.69345657713325
 21
36.04111614015773
 31
0.0
 11
-51.658961624699
 21
36.29999938099245
 31
0.0
 11
-51.63727727270155
 21
36.60147566086759
 31
0.0
 11
-51.62988106909089
 21
36.92499938099242
 31
0.0
 11
-51.63727727270155
 21
37.24852310111728
 31
0.0
 11
-51.658961624699
 21
37.54999938099246
 31
0.0
 11
-51.69345657713325
 21
37.80888262182723
 31
0.0
 11
-51.73841118013272
 21
38.00753113572308
 31
0.0
 11
-51.79076198674285
 21
38.13240634195217
 31
0.0
 11
-51.84694129117455
 21
38.17499938099262
 31
0.0
  0
ENDBLK
  5
77
330
75
100
AcDbEntity
  8
0
100
AcDbBlockEnd
  0
BLOCK
  5
7A
330
78
100
AcDbEntity
  8
0
100
AcDbBlockBegin
  2
Top1
 70
     0
 10
-52.99999999988
 20
40.00000000001008
 30
0.0
  3
Top1
  1

  0
INSERT
  5
79
330
78
100
AcDbEntity
  8
0
100
AcDbBlockReference
  2
ESB_2-MZDB-select__6
 10
-54.37011894559699
 20
35.17499938099212
 30
0.0
  0
MTEXT
  5
2A7
330
78
100
AcDbEntity
  8
1
 62
     6
100
AcDbMText
 10
-52.99999999988
 20
32.67500019074487
 30
0.0
 40
2.5
 41
0.0
 71
     2
 72
     1
  1
 
  7
CONVERTER_11
 73
     1
 44
1.32052821128451
  0
DIMENSION
  5
2B2
330
78
100
AcDbEntity
  8
1
100
AcDbDimension
  2
*D19
 10
-59.37011894559698
 20
44.82499938099212
 30
0.0
 11
-61.08261894559698
 21
39.95790601659965
 31
0.0
 70
    32
  1
<>
 71
     5
 42
-1.0
 53
90.0
  3
ME10_DIM_12
100
AcDbAlignedDimension
 13
-54.37011894559699
 23
35.17499938099212
 33
0.0
 14
-54.37011894559699
 24
44.82499938099213
 34
0.0
 50
90.0
100
AcDbRotatedDimension
  0
ENDBLK
  5
7B
330
78
100
AcDbEntity
  8
0
100
AcDbBlockEnd
  0
BLOCK
  5
84
330
7C
100
AcDbEntity
  8
0
100
AcDbBlockBegin
  2
1
 70
     0
 10
0.0
 20
0.0
 30
0.0
  3
1
  1

  0
INSERT
  5
7D
330
7C
100
AcDbEntity
  8
0
100
AcDbBlockReference
  2
A4I_CS
 10
47.06834422938373
 20
0.15039843919885
 30
0.0
  0
INSERT
  5
7E
330
7C
100
AcDbEntity
  8
0
100
AcDbBlockReference
  2
Back1
 10
-21.21952497983136
 20
142.1500003336361
 30
0.0
 41
2.0
 42
2.0
 43
2.0
  0
INSERT
  5
7F
330
7C
100
AcDbEntity
  8
0
100
AcDbBlockReference
  2
Front1
 10
-105.9999999997602
 20
142.1500003336361
 30
0.0
 41
2.0
 42
2.0
 43
2.0
  0
INSERT
  5
80
330
7C
100
AcDbEntity
  8
0
100
AcDbBlockReference
  2
Gen1
 10
-21.21952399978184
 20
79.9999999998181
 30
0.0
 41
2.0
 42
2.0
 43
2.0
  0
INSERT
  5
81
330
7C
100
AcDbEntity
  8
0
100
AcDbBlockReference
  2
Left1
 10
-63.60976248981574
 20
142.1500003336362
 30
0.0
 41
2.0
 42
2.0
 43
2.0
  0
INSERT
  5
82
330
7C
100
AcDbEntity
  8
0
100
AcDbBlockReference
  2
Right1
 10
-148.3902375101842
 20
142.1500003336361
 30
0.0
 41
2.0
 42
2.0
 43
2.0
  0
INSERT
  5
83
330
7C
100
AcDbEntity
  8
0
100
AcDbBlockReference
  2
Top1
 10
-105.99999999976
 20
80.00000000002017
 30
0.0
 41
2.0
 42
2.0
 43
2.0
  0
ENDBLK
  5
85
330
7C
100
AcDbEntity
  8
0
100
AcDbBlockEnd
  0
BLOCK
  5
1F4
330
1ED
100
AcDbEntity
  8
0
100
AcDbBlockBegin
  2
*D17
 70
     1
 10
0.0
 20
0.0
 30
0.0
  3
*D17
  1

  0
LINE
  5
1EE
330
1ED
100
AcDbEntity
  8
1
  6
Continuous
 62
     2
100
AcDbLine
 10
-59.37011894559706
 20
82.32500048207825
 30
0.0
 11
-59.37011894559706
 21
59.82500048207823
 31
0.0
  0
LINE
  5
1EF
330
1ED
100
AcDbEntity
  8
1
  6
Continuous
 62
     2
100
AcDbLine
 10
-54.37011894559706
 20
82.32500048207825
 30
0.0
 11
-60.12011894559706
 21
82.32500048207825
 31
0.0
  0
LINE
  5
1F0
330
1ED
100
AcDbEntity
  8
1
  6
Continuous
 62
     2
100
AcDbLine
 10
-52.12228494559707
 20
59.82500048207823
 30
0.0
 11
-60.12011894559706
 21
59.82500048207823
 31
0.0
  0
SOLID
  5
1F1
330
1ED
100
AcDbEntity
  8
1
 62
     2
100
AcDbTrace
 10
-59.13972707481912
 20
80.57500048207825
 30
0.0
 11
-59.60051081637501
 21
80.57500048207825
 31
0.0
 12
-59.37011894559706
 22
82.32500048207825
 32
0.0
 13
-59.37011894559706
 23
82.32500048207825
 33
0.0
  0
SOLID
  5
1F2
330
1ED
100
AcDbEntity
  8
1
 62
     2
100
AcDbTrace
 10
-59.60051081637501
 20
61.57500048207823
 30
0.0
 11
-59.13972707481912
 21
61.57500048207823
 31
0.0
 12
-59.37011894559706
 22
59.82500048207823
 32
0.0
 13
-59.37011894559706
 23
59.82500048207823
 33
0.0
  0
MTEXT
  5
1F3
330
1ED
100
AcDbEntity
  8
1
 62
     3
100
AcDbMText
 10
-60.29511894559706
 20
68.510850224079
 30
0.0
 40
1.75
 41
0.0
 71
     7
 72
     1
  1
22,5
  7
CONVERTER_11
 11
0.0
 21
1.0
 31
0.0
 73
     1
 44
0.60024009603842
  0
ENDBLK
  5
1F5
330
1ED
100
AcDbEntity
  8
0
100
AcDbBlockEnd
  0
BLOCK
  5
201
330
1F8
100
AcDbEntity
  8
0
100
AcDbBlockBegin
  2
*D18
 70
     1
 10
0.0
 20
0.0
 30
0.0
  3
*D18
  1

  0
LINE
  5
1F9
330
1F8
100
AcDbEntity
  8
1
  6
Continuous
 62
     2
100
AcDbLine
 10
-61.557836136622
 20
52.3358478550055
 30
0.0
 11
-54.37011894559706
 21
52.3358478550055
 31
0.0
  0
LINE
  5
1FA
330
1F8
100
AcDbEntity
  8
1
  6
Continuous
 62
     2
100
AcDbLine
 10
-54.37011894559706
 20
52.3358478550055
 30
0.0
 11
-51.62988106909096
 21
52.3358478550055
 31
0.0
  0
LINE
  5
1FB
330
1F8
100
AcDbEntity
  8
1
  6
Continuous
 62
     2
100
AcDbLine
 10
-51.62988106909096
 20
52.3358478550055
 30
0.0
 11
-48.12988106909095
 21
52.3358478550055
 31
0.0
  0
LINE
  5
1FC
330
1F8
100
AcDbEntity
  8
1
  6
Continuous
 62
     2
100
AcDbLine
 10
-54.37011894559706
 20
71.32500048207827
 30
0.0
 11
-54.37011894559706
 21
51.5858478550055
 31
0.0
  0
LINE
  5
1FD
330
1F8
100
AcDbEntity
  8
1
  6
Continuous
 62
     2
100
AcDbLine
 10
-51.62988106909096
 20
59.91182457091171
 30
0.0
 11
-51.62988106909096
 21
51.5858478550055
 31
0.0
  0
SOLID
  5
1FE
330
1F8
100
AcDbEntity
  8
1
 62
     2
100
AcDbTrace
 10
-56.12011894559706
 20
52.10545598422756
 30
0.0
 11
-56.12011894559706
 21
52.56623972578345
 31
0.0
 12
-54.37011894559706
 22
52.3358478550055
 32
0.0
 13
-54.37011894559706
 23
52.3358478550055
 33
0.0
  0
SOLID
  5
1FF
330
1F8
100
AcDbEntity
  8
1
 62
     2
100
AcDbTrace
 10
-49.87988106909096
 20
52.56623972578345
 30
0.0
 11
-49.87988106909096
 21
52.10545598422756
 31
0.0
 12
-51.62988106909096
 22
52.3358478550055
 32
0.0
 13
-51.62988106909096
 23
52.3358478550055
 33
0.0
  0
MTEXT
  5
200
330
1F8
100
AcDbEntity
  8
1
 62
     3
100
AcDbMText
 10
-61.557836136622
 20
53.2608478550055
 30
0.0
 40
1.75
 41
0.0
 71
     7
 72
     1
  1
2,74
  7
CONVERTER_11
 11
0.9999999999970619
 21
2.424068405545306E-6
 31
0.0
 73
     1
 44
0.60024009603842
  0
ENDBLK
  5
202
330
1F8
100
AcDbEntity
  8
0
100
AcDbBlockEnd
  0
BLOCK
  5
2AF
330
2A8
100
AcDbEntity
  8
0
100
AcDbBlockBegin
  2
*D19
 70
     1
 10
0.0
 20
0.0
 30
0.0
  3
*D19
  1

  0
LINE
  5
2A9
330
2A8
100
AcDbEntity
  8
1
  6
Continuous
 62
     2
100
AcDbLine
 10
-59.37011894559698
 20
44.82499938099212
 30
0.0
 11
-59.37011894559698
 21
35.17499938099212
 31
0.0
  0
LINE
  5
2AA
330
2A8
100
AcDbEntity
  8
1
  6
Continuous
 62
     2
100
AcDbLine
 10
-54.37011894559698
 20
44.82499938099212
 30
0.0
 11
-60.12011894559698
 21
44.82499938099212
 31
0.0
  0
LINE
  5
2AB
330
2A8
100
AcDbEntity
  8
1
  6
Continuous
 62
     2
100
AcDbLine
 10
-54.37011894559698
 20
35.17499938099212
 30
0.0
 11
-60.12011894559698
 21
35.17499938099212
 31
0.0
  0
SOLID
  5
2AC
330
2A8
100
AcDbEntity
  8
1
 62
     2
100
AcDbTrace
 10
-59.13972707481904
 20
43.07499938099212
 30
0.0
 11
-59.60051081637492
 21
43.07499938099212
 31
0.0
 12
-59.37011894559698
 22
44.82499938099212
 32
0.0
 13
-59.37011894559698
 23
44.82499938099212
 33
0.0
  0
SOLID
  5
2AD
330
2A8
100
AcDbEntity
  8
1
 62
     2
100
AcDbTrace
 10
-59.60051081637492
 20
36.92499938099212
 30
0.0
 11
-59.13972707481904
 21
36.92499938099212
 31
0.0
 12
-59.37011894559698
 22
35.17499938099212
 32
0.0
 13
-59.37011894559698
 23
35.17499938099212
 33
0.0
  0
MTEXT
  5
2AE
330
2A8
100
AcDbEntity
  8
1
 62
     3
100
AcDbMText
 10
-60.29511894559698
 20
37.55165601659965
 30
0.0
 40
1.75
 41
0.0
 71
     7
 72
     1
  1
9,65
  7
CONVERTER_11
 11
0.0
 21
1.0
 31
0.0
 73
     1
 44
0.60024009603842
  0
ENDBLK
  5
2B0
330
2A8
100
AcDbEntity
  8
0
100
AcDbBlockEnd
  0
ENDSEC
  0
SECTION
  2
ENTITIES
  0
INSERT
  5
86
330
1F
100
AcDbEntity
  8
1
100
AcDbBlockReference
  2
1
 10
0.0
 20
0.0
 30
0.0
  0
ENDSEC
  0
SECTION
  2
OBJECTS
  0
DICTIONARY
  5
C
330
0
100
AcDbDictionary
281
     1
  3
ACAD_GROUP
350
D
  3
ACAD_LAYOUT
350
1A
  3
ACAD_MATERIAL
350
3B
  3
ACAD_MLEADERSTYLE
350
2DA
  3
ACAD_MLINESTYLE
350
17
  3
ACAD_PLOTSETTINGS
350
19
  3
ACAD_PLOTSTYLENAME
350
E
  3
ACAD_TABLESTYLE
350
2D9
  3
ACAD_VISUALSTYLE
350
2A
  0
DICTIONARY
  5
D
102
{ACAD_REACTORS
330
C
102
}
330
C
100
AcDbDictionary
281
     1
  0
DICTIONARY
  5
1A
102
{ACAD_REACTORS
330
C
102
}
330
C
100
AcDbDictionary
281
     1
  3
Layout1
350
1E
  3
Layout2
350
26
  3
Model
350
22
  0
DICTIONARY
  5
3B
102
{ACAD_REACTORS
330
C
102
}
330
C
100
AcDbDictionary
281
     1
  3
ByBlock
350
3D
  3
ByLayer
350
3C
  3
Global
350
3E
  0
DICTIONARY
  5
2DA
102
{ACAD_REACTORS
330
C
102
}
330
C
100
AcDbDictionary
281
     1
  0
DICTIONARY
  5
17
102
{ACAD_REACTORS
330
C
102
}
330
C
100
AcDbDictionary
281
     1
  3
Standard
350
18
  0
DICTIONARY
  5
19
102
{ACAD_REACTORS
330
C
102
}
330
C
100
AcDbDictionary
281
     1
  0
ACDBDICTIONARYWDFLT
  5
E
102
{ACAD_REACTORS
330
C
102
}
330
C
100
AcDbDictionary
281
     1
  3
Normal
350
F
100
AcDbDictionaryWithDefault
340
F
  0
DICTIONARY
  5
2D9
102
{ACAD_REACTORS
330
C
102
}
330
C
100
AcDbDictionary
281
     1
  0
DICTIONARY
  5
2A
102
{ACAD_REACTORS
330
C
102
}
330
C
100
AcDbDictionary
281
     1
  3
2dWireframe
350
2F
  3
3D Hidden
350
31
  3
3dWireframe
350
30
  3
Basic
350
32
  3
Brighten
350
36
  3
ColorChange
350
3A
  3
Conceptual
350
34
  3
Dim
350
35
  3
Facepattern
350
39
  3
Flat
350
2B
  3
FlatWithEdges
350
2C
  3
Gouraud
350
2D
  3
GouraudWithEdges
350
2E
  3
Linepattern
350
38
  3
Realistic
350
33
  3
Thicken
350
37
  0
LAYOUT
  5
1E
102
{ACAD_REACTORS
330
1A
102
}
330
1A
100
AcDbPlotSettings
  1

  2
none_device
  4

  6

 40
0.0
 41
0.0
 42
0.0
 43
0.0
 44
0.0
 45
0.0
 46
0.0
 47
0.0
 48
0.0
 49
0.0
140
0.0
141
0.0
142
1.0
143
1.0
 70
   688
 72
     0
 73
     0
 74
     5
  7

 75
    16
 76
     0
 77
     2
 78
   300
147
1.0
148
0.0
149
0.0
100
AcDbLayout
  1
Layout1
 70
     1
 71
     1
 10
0.0
 20
0.0
 11
12.0
 21
9.0
 12
0.0
 22
0.0
 32
0.0
 14
1.00000000000000E+20
 24
1.00000000000000E+20
 34
1.00000000000000E+20
 15
-1.00000000000000E+20
 25
-1.00000000000000E+20
 35
-1.00000000000000E+20
146
0.0
 13
0.0
 23
0.0
 33
0.0
 16
1.0
 26
0.0
 36
0.0
 17
0.0
 27
1.0
 37
0.0
 76
     0
330
1B
  0
LAYOUT
  5
26
102
{ACAD_REACTORS
330
1A
102
}
330
1A
100
AcDbPlotSettings
  1

  2
none_device
  4

  6

 40
0.0
 41
0.0
 42
0.0
 43
0.0
 44
0.0
 45
0.0
 46
0.0
 47
0.0
 48
0.0
 49
0.0
140
0.0
141
0.0
142
1.0
143
1.0
 70
   688
 72
     0
 73
     0
 74
     5
  7

 75
    16
 76
     0
 77
     2
 78
   300
147
1.0
148
0.0
149
0.0
100
AcDbLayout
  1
Layout2
 70
     1
 71
     2
 10
0.0
 20
0.0
 11
0.0
 21
0.0
 12
0.0
 22
0.0
 32
0.0
 14
0.0
 24
0.0
 34
0.0
 15
0.0
 25
0.0
 35
0.0
146
0.0
 13
0.0
 23
0.0
 33
0.0
 16
1.0
 26
0.0
 36
0.0
 17
0.0
 27
1.0
 37
0.0
 76
     0
330
23
  0
LAYOUT
  5
22
102
{ACAD_REACTORS
330
1A
102
}
330
1A
100
AcDbPlotSettings
  1

  2
none_device
  4

  6

 40
0.0
 41
0.0
 42
0.0
 43
0.0
 44
0.0
 45
0.0
 46
0.0
 47
0.0
 48
0.0
 49
0.0
140
0.0
141
0.0
142
1.0
143
1.0
 70
  1712
 72
     0
 73
     0
 74
     0
  7

 75
     0
 76
     0
 77
     2
 78
   300
147
1.0
148
0.0
149
0.0
100
AcDbLayout
  1
Model
 70
     1
 71
     0
 10
0.0
 20
0.0
 11
12.0
 21
9.0
 12
0.0
 22
0.0
 32
0.0
 14
-244.9316557706154
 24
0.15039843919885
 34
0.0
 15
52.06834422938272
 25
210.150398439199
 35
0.0
146
0.0
 13
0.0
 23
0.0
 33
0.0
 16
1.0
 26
0.0
 36
0.0
 17
0.0
 27
1.0
 37
0.0
 76
     0
330
1F
331
29
  0
MATERIAL
  5
3D
102
{ACAD_REACTORS
330
3B
102
}
102
{ACAD_XDICTIONARY
360
2D5
102
}
330
3B
100
AcDbMaterial
  1
ByBlock
  0
MATERIAL
  5
3C
102
{ACAD_REACTORS
330
3B
102
}
102
{ACAD_XDICTIONARY
360
2D3
102
}
330
3B
100
AcDbMaterial
  1
ByLayer
  0
MATERIAL
  5
3E
102
{ACAD_REACTORS
330
3B
102
}
102
{ACAD_XDICTIONARY
360
2D7
102
}
330
3B
100
AcDbMaterial
  1
Global
  0
MLINESTYLE
  5
18
102
{ACAD_REACTORS
330
17
102
}
330
17
100
AcDbMlineStyle
  2
Standard
 70
     0
  3

 62
   256
 51
90.0
 52
90.0
 71
     2
 49
0.5
 62
   256
  6
BYLAYER
 49
-0.5
 62
   256
  6
BYLAYER
  0
ACDBPLACEHOLDER
  5
F
102
{ACAD_REACTORS
330
E
102
}
330
E
  0
VISUALSTYLE
  5
2F
102
{ACAD_REACTORS
330
2A
102
}
102
{ACAD_XDICTIONARY
360
2BB
102
}
330
2A
100
AcDbVisualStyle
  2
2dWireframe
 70
     4
 71
     0
 72
     2
 73
     0
 90
        0
 40
-0.6
 41
-30.0
 62
     5
 63
     7
421
 16777215
 74
     1
 91
        4
 64
     7
 65
   257
 75
     1
175
     1
 42
1.0
 92
        0
 66
   257
 43
1.0
 76
     1
 77
     6
 78
     2
 67
     7
 79
     5
170
     0
171
     0
290
     0
174
     0
 93
        1
 44
0.0
173
     0
291
     0
 45
0.0
1001
ACAD
1000
AcDbSavedByObjectVersion
1070
     0
  0
VISUALSTYLE
  5
31
102
{ACAD_REACTORS
330
2A
102
}
102
{ACAD_XDICTIONARY
360
2BF
102
}
330
2A
100
AcDbVisualStyle
  2
3D Hidden
 70
     6
 71
     1
 72
     2
 73
     2
 90
        0
 40
-0.6
 41
-30.0
 62
     5
 63
     7
421
 16777215
 74
     2
 91
        2
 64
     7
 65
   257
 75
     2
175
     1
 42
40.0
 92
        0
 66
   257
 43
1.0
 76
     1
 77
     6
 78
     2
 67
     7
 79
     3
170
     0
171
     0
290
     0
174
     0
 93
        1
 44
0.0
173
     0
291
     0
 45
0.0
1001
ACAD
1000
AcDbSavedByObjectVersion
1070
     0
  0
VISUALSTYLE
  5
30
102
{ACAD_REACTORS
330
2A
102
}
102
{ACAD_XDICTIONARY
360
2BD
102
}
330
2A
100
AcDbVisualStyle
  2
3dWireframe
 70
     5
 71
     0
 72
     2
 73
     0
 90
        0
 40
-0.6
 41
-30.0
 62
     5
 63
     7
421
 16777215
 74
     1
 91
        4
 64
     7
 65
   257
 75
     1
175
     1
 42
1.0
 92
        0
 66
   257
 43
1.0
 76
     1
 77
     6
 78
     2
 67
     7
 79
     5
170
     0
171
     0
290
     0
174
     0
 93
        1
 44
0.0
173
     0
291
     0
 45
0.0
1001
ACAD
1000
AcDbSavedByObjectVersion
1070
     0
  0
VISUALSTYLE
  5
32
102
{ACAD_REACTORS
330
2A
102
}
102
{ACAD_XDICTIONARY
360
2C1
102
}
330
2A
100
AcDbVisualStyle
  2
Basic
 70
     7
 71
     1
 72
     0
 73
     1
 90
        0
 40
-0.6
 41
-30.0
 62
     5
 63
     7
421
 16777215
 74
     0
 91
        4
 64
     7
 65
   257
 75
     1
175
     1
 42
1.0
 92
        8
 66
     7
 43
1.0
 76
     1
 77
     6
 78
     2
 67
     7
 79
     5
170
     0
171
     0
290
     0
174
     0
 93
        1
 44
0.0
173
     0
291
     1
 45
0.0
1001
ACAD
1000
AcDbSavedByObjectVersion
1070
     0
  0
VISUALSTYLE
  5
36
102
{ACAD_REACTORS
330
2A
102
}
102
{ACAD_XDICTIONARY
360
2C9
102
}
330
2A
100
AcDbVisualStyle
  2
Brighten
 70
    12
 71
     2
 72
     2
 73
     0
 90
        0
 40
-0.6
 41
-30.0
 62
     5
 63
     7
421
 16777215
 74
     1
 91
        4
 64
     7
 65
   257
 75
     1
175
     1
 42
1.0
 92
        8
 66
     7
 43
1.0
 76
     1
 77
     6
 78
     2
 67
     7
 79
     5
170
     0
171
     0
290
     0
174
     0
 93
        1
 44
50.0
173
     0
291
     1
 45
0.0
1001
ACAD
1000
AcDbSavedByObjectVersion
1070
     0
  0
VISUALSTYLE
  5
3A
102
{ACAD_REACTORS
330
2A
102
}
102
{ACAD_XDICTIONARY
360
2D1
102
}
330
2A
100
AcDbVisualStyle
  2
ColorChange
 70
    16
 71
     2
 72
     2
 73
     3
 90
        0
 40
-0.6
 41
-30.0
 62
     5
 63
     8
421
  8421504
 74
     1
 91
        4
 64
     7
 65
   257
 75
     1
175
     1
 42
1.0
 92
        8
 66
     8
424
  8421504
 43
1.0
 76
     1
 77
     6
 78
     2
 67
     7
 79
     5
170
     0
171
     0
290
     0
174
     0
 93
        1
 44
0.0
173
     0
291
     1
 45
0.0
1001
ACAD
1000
AcDbSavedByObjectVersion
1070
     0
  0
VISUALSTYLE
  5
34
102
{ACAD_REACTORS
330
2A
102
}
102
{ACAD_XDICTIONARY
360
2C5
102
}
330
2A
100
AcDbVisualStyle
  2
Conceptual
 70
     9
 71
     3
 72
     2
 73
     0
 90
        0
 40
-0.6
 41
-30.0
 62
     5
 63
     7
421
 16777215
 74
     2
 91
        2
 64
     7
 65
   257
 75
     1
175
     1
 42
40.0
 92
        8
 66
     7
 43
1.0
 76
     1
 77
     6
 78
     2
 67
     7
 79
     3
170
     0
171
     0
290
     0
174
     0
 93
        1
 44
0.0
173
     0
291
     0
 45
0.0
1001
ACAD
1000
AcDbSavedByObjectVersion
1070
     0
  0
VISUALSTYLE
  5
35
102
{ACAD_REACTORS
330
2A
102
}
102
{ACAD_XDICTIONARY
360
2C7
102
}
330
2A
100
AcDbVisualStyle
  2
Dim
 70
    11
 71
     2
 72
     2
 73
     0
 90
        0
 40
-0.6
 41
-30.0
 62
     5
 63
     7
421
 16777215
 74
     1
 91
        4
 64
     7
 65
   257
 75
     1
175
     1
 42
1.0
 92
        8
 66
     7
 43
1.0
 76
     1
 77
     6
 78
     2
 67
     7
 79
     5
170
     0
171
     0
290
     0
174
     0
 93
        1
 44
-50.0
173
     0
291
     1
 45
0.0
1001
ACAD
1000
AcDbSavedByObjectVersion
1070
     0
  0
VISUALSTYLE
  5
39
102
{ACAD_REACTORS
330
2A
102
}
102
{ACAD_XDICTIONARY
360
2CF
102
}
330
2A
100
AcDbVisualStyle
  2
Facepattern
 70
    15
 71
     2
 72
     2
 73
     0
 90
        0
 40
-0.6
 41
-30.0
 62
     5
 63
     7
421
 16777215
 74
     1
 91
        4
 64
     7
 65
   257
 75
     1
175
     1
 42
1.0
 92
        8
 66
     7
 43
1.0
 76
     1
 77
     6
 78
     2
 67
     7
 79
     5
170
     0
171
     0
290
     0
174
     0
 93
        1
 44
0.0
173
     0
291
     1
 45
0.0
1001
ACAD
1000
AcDbSavedByObjectVersion
1070
     0
  0
VISUALSTYLE
  5
2B
102
{ACAD_REACTORS
330
2A
102
}
102
{ACAD_XDICTIONARY
360
2B3
102
}
330
2A
100
AcDbVisualStyle
  2
Flat
 70
     0
 71
     2
 72
     1
 73
     1
 90
        2
 40
-0.6
 41
30.0
 62
     5
 63
     7
421
 16777215
 74
     0
 91
        4
 64
     7
 65
   257
 75
     1
175
     1
 42
1.0
 92
        8
 66
     7
 43
1.0
 76
     1
 77
     6
 78
     2
 67
     7
 79
     5
170
     0
171
     0
290
     0
174
     0
 93
       13
 44
0.0
173
     0
291
     1
 45
0.0
1001
ACAD
1000
AcDbSavedByObjectVersion
1070
     0
  0
VISUALSTYLE
  5
2C
102
{ACAD_REACTORS
330
2A
102
}
102
{ACAD_XDICTIONARY
360
2B5
102
}
330
2A
100
AcDbVisualStyle
  2
FlatWithEdges
 70
     1
 71
     2
 72
     1
 73
     1
 90
        2
 40
-0.6
 41
30.0
 62
     5
 63
     7
421
 16777215
 74
     1
 91
        4
 64
     7
 65
   257
 75
     1
175
     1
 42
1.0
 92
        0
 66
   257
 43
1.0
 76
     1
 77
     6
 78
     2
 67
     7
 79
     5
170
     0
171
     0
290
     0
174
     0
 93
       13
 44
0.0
173
     0
291
     1
 45
0.0
1001
ACAD
1000
AcDbSavedByObjectVersion
1070
     0
  0
VISUALSTYLE
  5
2D
102
{ACAD_REACTORS
330
2A
102
}
102
{ACAD_XDICTIONARY
360
2B7
102
}
330
2A
100
AcDbVisualStyle
  2
Gouraud
 70
     2
 71
     2
 72
     2
 73
     1
 90
        2
 40
-0.6
 41
30.0
 62
     5
 63
     7
421
 16777215
 74
     0
 91
        4
 64
     7
 65
   257
 75
     1
175
     1
 42
1.0
 92
        0
 66
     7
 43
1.0
 76
     1
 77
     6
 78
     2
 67
     7
 79
     5
170
     0
171
     0
290
     0
174
     0
 93
       13
 44
0.0
173
     0
291
     1
 45
0.0
1001
ACAD
1000
AcDbSavedByObjectVersion
1070
     0
  0
VISUALSTYLE
  5
2E
102
{ACAD_REACTORS
330
2A
102
}
102
{ACAD_XDICTIONARY
360
2B9
102
}
330
2A
100
AcDbVisualStyle
  2
GouraudWithEdges
 70
     3
 71
     2
 72
     2
 73
     1
 90
        2
 40
-0.6
 41
30.0
 62
     5
 63
     7
421
 16777215
 74
     1
 91
        4
 64
     7
 65
   257
 75
     1
175
     1
 42
1.0
 92
        0
 66
   257
 43
1.0
 76
     1
 77
     6
 78
     2
 67
     7
 79
     5
170
     0
171
     0
290
     0
174
     0
 93
       13
 44
0.0
173
     0
291
     1
 45
0.0
1001
ACAD
1000
AcDbSavedByObjectVersion
1070
     0
  0
VISUALSTYLE
  5
38
102
{ACAD_REACTORS
330
2A
102
}
102
{ACAD_XDICTIONARY
360
2CD
102
}
330
2A
100
AcDbVisualStyle
  2
Linepattern
 70
    14
 71
     2
 72
     2
 73
     0
 90
        0
 40
-0.6
 41
-30.0
 62
     5
 63
     7
421
 16777215
 74
     1
 91
        4
 64
     7
 65
   257
 75
     7
175
     7
 42
1.0
 92
        8
 66
     7
 43
1.0
 76
     1
 77
     6
 78
     2
 67
     7
 79
     5
170
     0
171
     0
290
     0
174
     0
 93
        1
 44
0.0
173
     0
291
     1
 45
0.0
1001
ACAD
1000
AcDbSavedByObjectVersion
1070
     0
  0
VISUALSTYLE
  5
33
102
{ACAD_REACTORS
330
2A
102
}
102
{ACAD_XDICTIONARY
360
2C3
102
}
330
2A
100
AcDbVisualStyle
  2
Realistic
 70
     8
 71
     2
 72
     2
 73
     0
 90
        0
 40
-0.6
 41
-30.0
 62
     5
 63
     7
421
 16777215
 74
     1
 91
        0
 64
     7
 65
   257
 75
     1
175
     1
 42
1.0
 92
        8
 66
     8
424
  7895160
 43
1.0
 76
     1
 77
     6
 78
     2
 67
     7
 79
     5
170
     0
171
     0
290
     0
174
     0
 93
       13
 44
0.0
173
     0
291
     0
 45
0.0
1001
ACAD
1000
AcDbSavedByObjectVersion
1070
     0
  0
VISUALSTYLE
  5
37
102
{ACAD_REACTORS
330
2A
102
}
102
{ACAD_XDICTIONARY
360
2CB
102
}
330
2A
100
AcDbVisualStyle
  2
Thicken
 70
    13
 71
     2
 72
     2
 73
     0
 90
        0
 40
-0.6
 41
-30.0
 62
     5
 63
     7
421
 16777215
 74
     1
 91
        4
 64
     7
 65
   257
 75
     1
175
     1
 42
1.0
 92
       12
 66
     7
 43
1.0
 76
     1
 77
     6
 78
     2
 67
     7
 79
     5
170
     0
171
     0
290
     0
174
     0
 93
        1
 44
0.0
173
     0
291
     1
 45
0.0
1001
ACAD
1000
AcDbSavedByObjectVersion
1070
     0
  0
DICTIONARY
  5
2D5
330
3D
100
AcDbDictionary
280
     1
281
     1
  3
ACAD_XREC_ROUNDTRIP
360
2D6
  0
DICTIONARY
  5
2D3
330
3C
100
AcDbDictionary
280
     1
281
     1
  3
ACAD_XREC_ROUNDTRIP
360
2D4
  0
DICTIONARY
  5
2D7
330
3E
100
AcDbDictionary
280
     1
281
     1
  3
ACAD_XREC_ROUNDTRIP
360
2D8
  0
DICTIONARY
  5
2BB
330
2F
100
AcDbDictionary
280
     1
281
     1
  3
ACAD_XREC_ROUNDTRIP
360
2BC
  0
DICTIONARY
  5
2BF
330
31
100
AcDbDictionary
280
     1
281
     1
  3
ACAD_XREC_ROUNDTRIP
360
2C0
  0
DICTIONARY
  5
2BD
330
30
100
AcDbDictionary
280
     1
281
     1
  3
ACAD_XREC_ROUNDTRIP
360
2BE
  0
DICTIONARY
  5
2C1
330
32
100
AcDbDictionary
280
     1
281
     1
  3
ACAD_XREC_ROUNDTRIP
360
2C2
  0
DICTIONARY
  5
2C9
330
36
100
AcDbDictionary
280
     1
281
     1
  3
ACAD_XREC_ROUNDTRIP
360
2CA
  0
DICTIONARY
  5
2D1
330
3A
100
AcDbDictionary
280
     1
281
     1
  3
ACAD_XREC_ROUNDTRIP
360
2D2
  0
DICTIONARY
  5
2C5
330
34
100
AcDbDictionary
280
     1
281
     1
  3
ACAD_XREC_ROUNDTRIP
360
2C6
  0
DICTIONARY
  5
2C7
330
35
100
AcDbDictionary
280
     1
281
     1
  3
ACAD_XREC_ROUNDTRIP
360
2C8
  0
DICTIONARY
  5
2CF
330
39
100
AcDbDictionary
280
     1
281
     1
  3
ACAD_XREC_ROUNDTRIP
360
2D0
  0
DICTIONARY
  5
2B3
330
2B
100
AcDbDictionary
280
     1
281
     1
  3
ACAD_XREC_ROUNDTRIP
360
2B4
  0
DICTIONARY
  5
2B5
330
2C
100
AcDbDictionary
280
     1
281
     1
  3
ACAD_XREC_ROUNDTRIP
360
2B6
  0
DICTIONARY
  5
2B7
330
2D
100
AcDbDictionary
280
     1
281
     1
  3
ACAD_XREC_ROUNDTRIP
360
2B8
  0
DICTIONARY
  5
2B9
330
2E
100
AcDbDictionary
280
     1
281
     1
  3
ACAD_XREC_ROUNDTRIP
360
2BA
  0
DICTIONARY
  5
2CD
330
38
100
AcDbDictionary
280
     1
281
     1
  3
ACAD_XREC_ROUNDTRIP
360
2CE
  0
DICTIONARY
  5
2C3
330
33
100
AcDbDictionary
280
     1
281
     1
  3
ACAD_XREC_ROUNDTRIP
360
2C4
  0
DICTIONARY
  5
2CB
330
37
100
AcDbDictionary
280
     1
281
     1
  3
ACAD_XREC_ROUNDTRIP
360
2CC
  0
XRECORD
  5
2D6
102
{ACAD_REACTORS
330
2D5
102
}
330
2D5
100
AcDbXrecord
280
     1
102
MATERIAL
148
0.0
149
0.0
149
0.0
 93
        0
 94
      127
282
     0
 72
     1
 77
     1
171
     1
175
     1
179
     1
273
     0
  0
XRECORD
  5
2D4
102
{ACAD_REACTORS
330
2D3
102
}
330
2D3
100
AcDbXrecord
280
     1
102
MATERIAL
148
0.0
149
0.0
149
0.0
 93
        0
 94
      127
282
     0
 72
     1
 77
     1
171
     1
175
     1
179
     1
273
     0
  0
XRECORD
  5
2D8
102
{ACAD_REACTORS
330
2D7
102
}
330
2D7
100
AcDbXrecord
280
     1
102
MATERIAL
148
0.0
149
0.0
149
0.0
 93
        0
 94
      127
282
     0
 72
     1
 77
     1
171
     1
175
     1
179
     1
273
     0
  0
XRECORD
  5
2BC
102
{ACAD_REACTORS
330
2BB
102
}
330
2BB
100
AcDbXrecord
280
     1
102
RTVSPropertyOp0
 70
     1
102
RTVSPropertyOp1
 70
     1
102
RTVSPropertyOp2
 70
     1
102
RTVSPropertyOp3
 70
     1
102
RTVSPropertyOp4
 70
     1
102
RTVSPropertyOp5
 70
     1
102
RTVSPropertyOp6
 70
     1
102
RTVSPropertyOp7
 70
     1
102
RTVSPropertyOp8
 70
     1
102
RTVSPropertyOp9
 70
     1
102
RTVSPropertyOp10
 70
     1
102
RTVSPropertyOp11
 70
     1
102
RTVSPropertyOp12
 70
     1
102
RTVSPropertyOp13
 70
     1
102
RTVSPropertyOp14
 70
     1
102
RTVSPropertyOp15
 70
     1
102
RTVSPropertyOp16
 70
     1
102
RTVSPropertyOp17
 70
     1
102
RTVSPropertyOp18
 70
     1
102
RTVSPropertyOp19
 70
     1
102
RTVSPropertyOp20
 70
     1
102
RTVSPropertyOp21
 70
     1
102
RTVSPropertyOp22
 70
     1
102
RTVSPropertyOp23
 70
     1
102
RTVSPropertyOp24
 70
     1
102
RTVSPropertyOp25
 70
     1
102
RTVSPropertyOp26
 70
     1
102
RTVSPropertyOp27
 70
     1
102
RTVSPropertyOp28
 70
     1
102
RTVSPropertyOp29
 70
     1
102
RTVSPropertyOp30
 70
     1
102
RTVSPropertyOp31
 70
     1
102
RTVSPropertyOp32
 70
     1
  0
XRECORD
  5
2C0
102
{ACAD_REACTORS
330
2BF
102
}
330
2BF
100
AcDbXrecord
280
     1
102
RTVSPropertyOp0
 70
     1
102
RTVSPropertyOp1
 70
     1
102
RTVSPropertyOp2
 70
     1
102
RTVSPropertyOp3
 70
     1
102
RTVSPropertyOp4
 70
     1
102
RTVSPropertyOp5
 70
     1
102
RTVSPropertyOp6
 70
     1
102
RTVSPropertyOp7
 70
     1
102
RTVSPropertyOp8
 70
     1
102
RTVSPropertyOp9
 70
     1
102
RTVSPropertyOp10
 70
     1
102
RTVSPropertyOp11
 70
     1
102
RTVSPropertyOp12
 70
     1
102
RTVSPropertyOp13
 70
     1
102
RTVSPropertyOp14
 70
     1
102
RTVSPropertyOp15
 70
     1
102
RTVSPropertyOp16
 70
     1
102
RTVSPropertyOp17
 70
     1
102
RTVSPropertyOp18
 70
     1
102
RTVSPropertyOp19
 70
     1
102
RTVSPropertyOp20
 70
     1
102
RTVSPropertyOp21
 70
     1
102
RTVSPropertyOp22
 70
     1
102
RTVSPropertyOp23
 70
     1
102
RTVSPropertyOp24
 70
     1
102
RTVSPropertyOp25
 70
     1
102
RTVSPropertyOp26
 70
     1
102
RTVSPropertyOp27
 70
     1
102
RTVSPropertyOp28
 70
     1
102
RTVSPropertyOp29
 70
     1
102
RTVSPropertyOp30
 70
     1
102
RTVSPropertyOp31
 70
     1
102
RTVSPropertyOp32
 70
     1
  0
XRECORD
  5
2BE
102
{ACAD_REACTORS
330
2BD
102
}
330
2BD
100
AcDbXrecord
280
     1
102
RTVSPropertyOp0
 70
     1
102
RTVSPropertyOp1
 70
     1
102
RTVSPropertyOp2
 70
     1
102
RTVSPropertyOp3
 70
     1
102
RTVSPropertyOp4
 70
     1
102
RTVSPropertyOp5
 70
     1
102
RTVSPropertyOp6
 70
     1
102
RTVSPropertyOp7
 70
     1
102
RTVSPropertyOp8
 70
     1
102
RTVSPropertyOp9
 70
     1
102
RTVSPropertyOp10
 70
     1
102
RTVSPropertyOp11
 70
     1
102
RTVSPropertyOp12
 70
     1
102
RTVSPropertyOp13
 70
     1
102
RTVSPropertyOp14
 70
     1
102
RTVSPropertyOp15
 70
     1
102
RTVSPropertyOp16
 70
     1
102
RTVSPropertyOp17
 70
     1
102
RTVSPropertyOp18
 70
     1
102
RTVSPropertyOp19
 70
     1
102
RTVSPropertyOp20
 70
     1
102
RTVSPropertyOp21
 70
     1
102
RTVSPropertyOp22
 70
     1
102
RTVSPropertyOp23
 70
     1
102
RTVSPropertyOp24
 70
     1
102
RTVSPropertyOp25
 70
     1
102
RTVSPropertyOp26
 70
     1
102
RTVSPropertyOp27
 70
     1
102
RTVSPropertyOp28
 70
     1
102
RTVSPropertyOp29
 70
     1
102
RTVSPropertyOp30
 70
     1
102
RTVSPropertyOp31
 70
     1
102
RTVSPropertyOp32
 70
     1
  0
XRECORD
  5
2C2
102
{ACAD_REACTORS
330
2C1
102
}
330
2C1
100
AcDbXrecord
280
     1
102
RTVSPropertyOp0
 70
     1
102
RTVSPropertyOp1
 70
     1
102
RTVSPropertyOp2
 70
     1
102
RTVSPropertyOp3
 70
     1
102
RTVSPropertyOp4
 70
     1
102
RTVSPropertyOp5
 70
     1
102
RTVSPropertyOp6
 70
     1
102
RTVSPropertyOp7
 70
     1
102
RTVSPropertyOp8
 70
     1
102
RTVSPropertyOp9
 70
     1
102
RTVSPropertyOp10
 70
     1
102
RTVSPropertyOp11
 70
     1
102
RTVSPropertyOp12
 70
     1
102
RTVSPropertyOp13
 70
     1
102
RTVSPropertyOp14
 70
     1
102
RTVSPropertyOp15
 70
     1
102
RTVSPropertyOp16
 70
     1
102
RTVSPropertyOp17
 70
     1
102
RTVSPropertyOp18
 70
     1
102
RTVSPropertyOp19
 70
     1
102
RTVSPropertyOp20
 70
     1
102
RTVSPropertyOp21
 70
     1
102
RTVSPropertyOp22
 70
     1
102
RTVSPropertyOp23
 70
     1
102
RTVSPropertyOp24
 70
     1
102
RTVSPropertyOp25
 70
     1
102
RTVSPropertyOp26
 70
     1
102
RTVSPropertyOp27
 70
     1
102
RTVSPropertyOp28
 70
     1
102
RTVSPropertyOp29
 70
     1
102
RTVSPropertyOp30
 70
     1
102
RTVSPropertyOp31
 70
     1
102
RTVSPropertyOp32
 70
     1
  0
XRECORD
  5
2CA
102
{ACAD_REACTORS
330
2C9
102
}
330
2C9
100
AcDbXrecord
280
     1
102
RTVSPropertyOp0
 70
     1
102
RTVSPropertyOp1
 70
     1
102
RTVSPropertyOp2
 70
     1
102
RTVSPropertyOp3
 70
     1
102
RTVSPropertyOp4
 70
     1
102
RTVSPropertyOp5
 70
     1
102
RTVSPropertyOp6
 70
     1
102
RTVSPropertyOp7
 70
     1
102
RTVSPropertyOp8
 70
     1
102
RTVSPropertyOp9
 70
     1
102
RTVSPropertyOp10
 70
     1
102
RTVSPropertyOp11
 70
     1
102
RTVSPropertyOp12
 70
     1
102
RTVSPropertyOp13
 70
     1
102
RTVSPropertyOp14
 70
     1
102
RTVSPropertyOp15
 70
     1
102
RTVSPropertyOp16
 70
     1
102
RTVSPropertyOp17
 70
     1
102
RTVSPropertyOp18
 70
     1
102
RTVSPropertyOp19
 70
     1
102
RTVSPropertyOp20
 70
     1
102
RTVSPropertyOp21
 70
     1
102
RTVSPropertyOp22
 70
     1
102
RTVSPropertyOp23
 70
     1
102
RTVSPropertyOp24
 70
     1
102
RTVSPropertyOp25
 70
     1
102
RTVSPropertyOp26
 70
     1
102
RTVSPropertyOp27
 70
     1
102
RTVSPropertyOp28
 70
     1
102
RTVSPropertyOp29
 70
     1
102
RTVSPropertyOp30
 70
     1
102
RTVSPropertyOp31
 70
     1
102
RTVSPropertyOp32
 70
     1
  0
XRECORD
  5
2D2
102
{ACAD_REACTORS
330
2D1
102
}
330
2D1
100
AcDbXrecord
280
     1
102
RTVSPropertyOp0
 70
     1
102
RTVSPropertyOp1
 70
     1
102
RTVSPropertyOp2
 70
     1
102
RTVSPropertyOp3
 70
     1
102
RTVSPropertyOp4
 70
     1
102
RTVSPropertyOp5
 70
     1
102
RTVSPropertyOp6
 70
     1
102
RTVSPropertyOp7
 70
     1
102
RTVSPropertyOp8
 70
     1
102
RTVSPropertyOp9
 70
     1
102
RTVSPropertyOp10
 70
     1
102
RTVSPropertyOp11
 70
     1
102
RTVSPropertyOp12
 70
     1
102
RTVSPropertyOp13
 70
     1
102
RTVSPropertyOp14
 70
     1
102
RTVSPropertyOp15
 70
     1
102
RTVSPropertyOp16
 70
     1
102
RTVSPropertyOp17
 70
     1
102
RTVSPropertyOp18
 70
     1
102
RTVSPropertyOp19
 70
     1
102
RTVSPropertyOp20
 70
     1
102
RTVSPropertyOp21
 70
     1
102
RTVSPropertyOp22
 70
     1
102
RTVSPropertyOp23
 70
     1
102
RTVSPropertyOp24
 70
     1
102
RTVSPropertyOp25
 70
     1
102
RTVSPropertyOp26
 70
     1
102
RTVSPropertyOp27
 70
     1
102
RTVSPropertyOp28
 70
     1
102
RTVSPropertyOp29
 70
     1
102
RTVSPropertyOp30
 70
     1
102
RTVSPropertyOp31
 70
     1
102
RTVSPropertyOp32
 70
     1
  0
XRECORD
  5
2C6
102
{ACAD_REACTORS
330
2C5
102
}
330
2C5
100
AcDbXrecord
280
     1
102
RTVSPropertyOp0
 70
     1
102
RTVSPropertyOp1
 70
     1
102
RTVSPropertyOp2
 70
     1
102
RTVSPropertyOp3
 70
     1
102
RTVSPropertyOp4
 70
     1
102
RTVSPropertyOp5
 70
     1
102
RTVSPropertyOp6
 70
     1
102
RTVSPropertyOp7
 70
     1
102
RTVSPropertyOp8
 70
     1
102
RTVSPropertyOp9
 70
     1
102
RTVSPropertyOp10
 70
     1
102
RTVSPropertyOp11
 70
     1
102
RTVSPropertyOp12
 70
     1
102
RTVSPropertyOp13
 70
     1
102
RTVSPropertyOp14
 70
     1
102
RTVSPropertyOp15
 70
     1
102
RTVSPropertyOp16
 70
     1
102
RTVSPropertyOp17
 70
     1
102
RTVSPropertyOp18
 70
     1
102
RTVSPropertyOp19
 70
     1
102
RTVSPropertyOp20
 70
     1
102
RTVSPropertyOp21
 70
     1
102
RTVSPropertyOp22
 70
     1
102
RTVSPropertyOp23
 70
     1
102
RTVSPropertyOp24
 70
     1
102
RTVSPropertyOp25
 70
     1
102
RTVSPropertyOp26
 70
     1
102
RTVSPropertyOp27
 70
     1
102
RTVSPropertyOp28
 70
     1
102
RTVSPropertyOp29
 70
     1
102
RTVSPropertyOp30
 70
     1
102
RTVSPropertyOp31
 70
     1
102
RTVSPropertyOp32
 70
     1
  0
XRECORD
  5
2C8
102
{ACAD_REACTORS
330
2C7
102
}
330
2C7
100
AcDbXrecord
280
     1
102
RTVSPropertyOp0
 70
     1
102
RTVSPropertyOp1
 70
     1
102
RTVSPropertyOp2
 70
     1
102
RTVSPropertyOp3
 70
     1
102
RTVSPropertyOp4
 70
     1
102
RTVSPropertyOp5
 70
     1
102
RTVSPropertyOp6
 70
     1
102
RTVSPropertyOp7
 70
     1
102
RTVSPropertyOp8
 70
     1
102
RTVSPropertyOp9
 70
     1
102
RTVSPropertyOp10
 70
     1
102
RTVSPropertyOp11
 70
     1
102
RTVSPropertyOp12
 70
     1
102
RTVSPropertyOp13
 70
     1
102
RTVSPropertyOp14
 70
     1
102
RTVSPropertyOp15
 70
     1
102
RTVSPropertyOp16
 70
     1
102
RTVSPropertyOp17
 70
     1
102
RTVSPropertyOp18
 70
     1
102
RTVSPropertyOp19
 70
     1
102
RTVSPropertyOp20
 70
     1
102
RTVSPropertyOp21
 70
     1
102
RTVSPropertyOp22
 70
     1
102
RTVSPropertyOp23
 70
     1
102
RTVSPropertyOp24
 70
     1
102
RTVSPropertyOp25
 70
     1
102
RTVSPropertyOp26
 70
     1
102
RTVSPropertyOp27
 70
     1
102
RTVSPropertyOp28
 70
     1
102
RTVSPropertyOp29
 70
     1
102
RTVSPropertyOp30
 70
     1
102
RTVSPropertyOp31
 70
     1
102
RTVSPropertyOp32
 70
     1
  0
XRECORD
  5
2D0
102
{ACAD_REACTORS
330
2CF
102
}
330
2CF
100
AcDbXrecord
280
     1
102
RTVSPropertyOp0
 70
     1
102
RTVSPropertyOp1
 70
     1
102
RTVSPropertyOp2
 70
     1
102
RTVSPropertyOp3
 70
     1
102
RTVSPropertyOp4
 70
     1
102
RTVSPropertyOp5
 70
     1
102
RTVSPropertyOp6
 70
     1
102
RTVSPropertyOp7
 70
     1
102
RTVSPropertyOp8
 70
     1
102
RTVSPropertyOp9
 70
     1
102
RTVSPropertyOp10
 70
     1
102
RTVSPropertyOp11
 70
     1
102
RTVSPropertyOp12
 70
     1
102
RTVSPropertyOp13
 70
     1
102
RTVSPropertyOp14
 70
     1
102
RTVSPropertyOp15
 70
     1
102
RTVSPropertyOp16
 70
     1
102
RTVSPropertyOp17
 70
     1
102
RTVSPropertyOp18
 70
     1
102
RTVSPropertyOp19
 70
     1
102
RTVSPropertyOp20
 70
     1
102
RTVSPropertyOp21
 70
     1
102
RTVSPropertyOp22
 70
     1
102
RTVSPropertyOp23
 70
     1
102
RTVSPropertyOp24
 70
     1
102
RTVSPropertyOp25
 70
     1
102
RTVSPropertyOp26
 70
     1
102
RTVSPropertyOp27
 70
     1
102
RTVSPropertyOp28
 70
     1
102
RTVSPropertyOp29
 70
     1
102
RTVSPropertyOp30
 70
     1
102
RTVSPropertyOp31
 70
     1
102
RTVSPropertyOp32
 70
     1
  0
XRECORD
  5
2B4
102
{ACAD_REACTORS
330
2B3
102
}
330
2B3
100
AcDbXrecord
280
     1
102
RTVSPropertyOp0
 70
     1
102
RTVSPropertyOp1
 70
     1
102
RTVSPropertyOp2
 70
     1
102
RTVSPropertyOp3
 70
     1
102
RTVSPropertyOp4
 70
     1
102
RTVSPropertyOp5
 70
     1
102
RTVSPropertyOp6
 70
     1
102
RTVSPropertyOp7
 70
     1
102
RTVSPropertyOp8
 70
     1
102
RTVSPropertyOp9
 70
     1
102
RTVSPropertyOp10
 70
     1
102
RTVSPropertyOp11
 70
     1
102
RTVSPropertyOp12
 70
     1
102
RTVSPropertyOp13
 70
     1
102
RTVSPropertyOp14
 70
     1
102
RTVSPropertyOp15
 70
     1
102
RTVSPropertyOp16
 70
     1
102
RTVSPropertyOp17
 70
     1
102
RTVSPropertyOp18
 70
     1
102
RTVSPropertyOp19
 70
     1
102
RTVSPropertyOp20
 70
     1
102
RTVSPropertyOp21
 70
     1
102
RTVSPropertyOp22
 70
     1
102
RTVSPropertyOp23
 70
     1
102
RTVSPropertyOp24
 70
     1
102
RTVSPropertyOp25
 70
     1
102
RTVSPropertyOp26
 70
     1
102
RTVSPropertyOp27
 70
     1
102
RTVSPropertyOp28
 70
     1
102
RTVSPropertyOp29
 70
     1
102
RTVSPropertyOp30
 70
     1
102
RTVSPropertyOp31
 70
     1
102
RTVSPropertyOp32
 70
     1
  0
XRECORD
  5
2B6
102
{ACAD_REACTORS
330
2B5
102
}
330
2B5
100
AcDbXrecord
280
     1
102
RTVSPropertyOp0
 70
     1
102
RTVSPropertyOp1
 70
     1
102
RTVSPropertyOp2
 70
     1
102
RTVSPropertyOp3
 70
     1
102
RTVSPropertyOp4
 70
     1
102
RTVSPropertyOp5
 70
     1
102
RTVSPropertyOp6
 70
     1
102
RTVSPropertyOp7
 70
     1
102
RTVSPropertyOp8
 70
     1
102
RTVSPropertyOp9
 70
     1
102
RTVSPropertyOp10
 70
     1
102
RTVSPropertyOp11
 70
     1
102
RTVSPropertyOp12
 70
     1
102
RTVSPropertyOp13
 70
     1
102
RTVSPropertyOp14
 70
     1
102
RTVSPropertyOp15
 70
     1
102
RTVSPropertyOp16
 70
     1
102
RTVSPropertyOp17
 70
     1
102
RTVSPropertyOp18
 70
     1
102
RTVSPropertyOp19
 70
     1
102
RTVSPropertyOp20
 70
     1
102
RTVSPropertyOp21
 70
     1
102
RTVSPropertyOp22
 70
     1
102
RTVSPropertyOp23
 70
     1
102
RTVSPropertyOp24
 70
     1
102
RTVSPropertyOp25
 70
     1
102
RTVSPropertyOp26
 70
     1
102
RTVSPropertyOp27
 70
     1
102
RTVSPropertyOp28
 70
     1
102
RTVSPropertyOp29
 70
     1
102
RTVSPropertyOp30
 70
     1
102
RTVSPropertyOp31
 70
     1
102
RTVSPropertyOp32
 70
     1
  0
XRECORD
  5
2B8
102
{ACAD_REACTORS
330
2B7
102
}
330
2B7
100
AcDbXrecord
280
     1
102
RTVSPropertyOp0
 70
     1
102
RTVSPropertyOp1
 70
     1
102
RTVSPropertyOp2
 70
     1
102
RTVSPropertyOp3
 70
     1
102
RTVSPropertyOp4
 70
     1
102
RTVSPropertyOp5
 70
     1
102
RTVSPropertyOp6
 70
     1
102
RTVSPropertyOp7
 70
     1
102
RTVSPropertyOp8
 70
     1
102
RTVSPropertyOp9
 70
     1
102
RTVSPropertyOp10
 70
     1
102
RTVSPropertyOp11
 70
     1
102
RTVSPropertyOp12
 70
     1
102
RTVSPropertyOp13
 70
     1
102
RTVSPropertyOp14
 70
     1
102
RTVSPropertyOp15
 70
     1
102
RTVSPropertyOp16
 70
     1
102
RTVSPropertyOp17
 70
     1
102
RTVSPropertyOp18
 70
     1
102
RTVSPropertyOp19
 70
     1
102
RTVSPropertyOp20
 70
     1
102
RTVSPropertyOp21
 70
     1
102
RTVSPropertyOp22
 70
     1
102
RTVSPropertyOp23
 70
     1
102
RTVSPropertyOp24
 70
     1
102
RTVSPropertyOp25
 70
     1
102
RTVSPropertyOp26
 70
     1
102
RTVSPropertyOp27
 70
     1
102
RTVSPropertyOp28
 70
     1
102
RTVSPropertyOp29
 70
     1
102
RTVSPropertyOp30
 70
     1
102
RTVSPropertyOp31
 70
     1
102
RTVSPropertyOp32
 70
     1
  0
XRECORD
  5
2BA
102
{ACAD_REACTORS
330
2B9
102
}
330
2B9
100
AcDbXrecord
280
     1
102
RTVSPropertyOp0
 70
     1
102
RTVSPropertyOp1
 70
     1
102
RTVSPropertyOp2
 70
     1
102
RTVSPropertyOp3
 70
     1
102
RTVSPropertyOp4
 70
     1
102
RTVSPropertyOp5
 70
     1
102
RTVSPropertyOp6
 70
     1
102
RTVSPropertyOp7
 70
     1
102
RTVSPropertyOp8
 70
     1
102
RTVSPropertyOp9
 70
     1
102
RTVSPropertyOp10
 70
     1
102
RTVSPropertyOp11
 70
     1
102
RTVSPropertyOp12
 70
     1
102
RTVSPropertyOp13
 70
     1
102
RTVSPropertyOp14
 70
     1
102
RTVSPropertyOp15
 70
     1
102
RTVSPropertyOp16
 70
     1
102
RTVSPropertyOp17
 70
     1
102
RTVSPropertyOp18
 70
     1
102
RTVSPropertyOp19
 70
     1
102
RTVSPropertyOp20
 70
     1
102
RTVSPropertyOp21
 70
     1
102
RTVSPropertyOp22
 70
     1
102
RTVSPropertyOp23
 70
     1
102
RTVSPropertyOp24
 70
     1
102
RTVSPropertyOp25
 70
     1
102
RTVSPropertyOp26
 70
     1
102
RTVSPropertyOp27
 70
     1
102
RTVSPropertyOp28
 70
     1
102
RTVSPropertyOp29
 70
     1
102
RTVSPropertyOp30
 70
     1
102
RTVSPropertyOp31
 70
     1
102
RTVSPropertyOp32
 70
     1
  0
XRECORD
  5
2CE
102
{ACAD_REACTORS
330
2CD
102
}
330
2CD
100
AcDbXrecord
280
     1
102
RTVSPropertyOp0
 70
     1
102
RTVSPropertyOp1
 70
     1
102
RTVSPropertyOp2
 70
     1
102
RTVSPropertyOp3
 70
     1
102
RTVSPropertyOp4
 70
     1
102
RTVSPropertyOp5
 70
     1
102
RTVSPropertyOp6
 70
     1
102
RTVSPropertyOp7
 70
     1
102
RTVSPropertyOp8
 70
     1
102
RTVSPropertyOp9
 70
     1
102
RTVSPropertyOp10
 70
     1
102
RTVSPropertyOp11
 70
     1
102
RTVSPropertyOp12
 70
     1
102
RTVSPropertyOp13
 70
     1
102
RTVSPropertyOp14
 70
     1
102
RTVSPropertyOp15
 70
     1
102
RTVSPropertyOp16
 70
     1
102
RTVSPropertyOp17
 70
     1
102
RTVSPropertyOp18
 70
     1
102
RTVSPropertyOp19
 70
     1
102
RTVSPropertyOp20
 70
     1
102
RTVSPropertyOp21
 70
     1
102
RTVSPropertyOp22
 70
     1
102
RTVSPropertyOp23
 70
     1
102
RTVSPropertyOp24
 70
     1
102
RTVSPropertyOp25
 70
     1
102
RTVSPropertyOp26
 70
     1
102
RTVSPropertyOp27
 70
     1
102
RTVSPropertyOp28
 70
     1
102
RTVSPropertyOp29
 70
     1
102
RTVSPropertyOp30
 70
     1
102
RTVSPropertyOp31
 70
     1
102
RTVSPropertyOp32
 70
     1
  0
XRECORD
  5
2C4
102
{ACAD_REACTORS
330
2C3
102
}
330
2C3
100
AcDbXrecord
280
     1
102
RTVSPropertyOp0
 70
     1
102
RTVSPropertyOp1
 70
     1
102
RTVSPropertyOp2
 70
     1
102
RTVSPropertyOp3
 70
     1
102
RTVSPropertyOp4
 70
     1
102
RTVSPropertyOp5
 70
     1
102
RTVSPropertyOp6
 70
     1
102
RTVSPropertyOp7
 70
     1
102
RTVSPropertyOp8
 70
     1
102
RTVSPropertyOp9
 70
     1
102
RTVSPropertyOp10
 70
     1
102
RTVSPropertyOp11
 70
     1
102
RTVSPropertyOp12
 70
     1
102
RTVSPropertyOp13
 70
     1
102
RTVSPropertyOp14
 70
     1
102
RTVSPropertyOp15
 70
     1
102
RTVSPropertyOp16
 70
     1
102
RTVSPropertyOp17
 70
     1
102
RTVSPropertyOp18
 70
     1
102
RTVSPropertyOp19
 70
     1
102
RTVSPropertyOp20
 70
     1
102
RTVSPropertyOp21
 70
     1
102
RTVSPropertyOp22
 70
     1
102
RTVSPropertyOp23
 70
     1
102
RTVSPropertyOp24
 70
     1
102
RTVSPropertyOp25
 70
     1
102
RTVSPropertyOp26
 70
     1
102
RTVSPropertyOp27
 70
     1
102
RTVSPropertyOp28
 70
     1
102
RTVSPropertyOp29
 70
     1
102
RTVSPropertyOp30
 70
     1
102
RTVSPropertyOp31
 70
     1
102
RTVSPropertyOp32
 70
     1
  0
XRECORD
  5
2CC
102
{ACAD_REACTORS
330
2CB
102
}
330
2CB
100
AcDbXrecord
280
     1
102
RTVSPropertyOp0
 70
     1
102
RTVSPropertyOp1
 70
     1
102
RTVSPropertyOp2
 70
     1
102
RTVSPropertyOp3
 70
     1
102
RTVSPropertyOp4
 70
     1
102
RTVSPropertyOp5
 70
     1
102
RTVSPropertyOp6
 70
     1
102
RTVSPropertyOp7
 70
     1
102
RTVSPropertyOp8
 70
     1
102
RTVSPropertyOp9
 70
     1
102
RTVSPropertyOp10
 70
     1
102
RTVSPropertyOp11
 70
     1
102
RTVSPropertyOp12
 70
     1
102
RTVSPropertyOp13
 70
     1
102
RTVSPropertyOp14
 70
     1
102
RTVSPropertyOp15
 70
     1
102
RTVSPropertyOp16
 70
     1
102
RTVSPropertyOp17
 70
     1
102
RTVSPropertyOp18
 70
     1
102
RTVSPropertyOp19
 70
     1
102
RTVSPropertyOp20
 70
     1
102
RTVSPropertyOp21
 70
     1
102
RTVSPropertyOp22
 70
     1
102
RTVSPropertyOp23
 70
     1
102
RTVSPropertyOp24
 70
     1
102
RTVSPropertyOp25
 70
     1
102
RTVSPropertyOp26
 70
     1
102
RTVSPropertyOp27
 70
     1
102
RTVSPropertyOp28
 70
     1
102
RTVSPropertyOp29
 70
     1
102
RTVSPropertyOp30
 70
     1
102
RTVSPropertyOp31
 70
     1
102
RTVSPropertyOp32
 70
     1
  0
ENDSEC
  0
EOF
